  0
SECTION
  2
HEADER
  9
$ACADVER
  1
AC1015
  9
$ACADMAINTVER
 70
     6
  9
$DWGCODEPAGE
  3
ANSI_1252
  9
$INSBASE
 10
0.0
 20
0.0
 30
0.0
  9
$EXTMIN
 10
0.0
 20
0.0
 30
0.0
  9
$EXTMAX
 10
909.0
 20
680.0
 30
0.0
  9
$LIMMIN
 10
0.0
 20
0.0
  9
$LIMMAX
 10
909.0
 20
680.0
  9
$ORTHOMODE
 70
     0
  9
$REGENMODE
 70
     1
  9
$FILLMODE
 70
     1
  9
$QTEXTMODE
 70
     0
  9
$MIRRTEXT
 70
     1
  9
$LTSCALE
 40
1.0
  9
$ATTMODE
 70
     1
  9
$TEXTSIZE
 40
3.5
  9
$TRACEWID
 40
1.0
  9
$TEXTSTYLE
  7
Standard
  9
$CLAYER
  8
0
  9
$CELTYPE
  6
ByLayer
  9
$CECOLOR
 62
   256
  9
$CELTSCALE
 40
1.0
  9
$DISPSILH
 70
     0
  9
$DIMSCALE
 40
1.0
  9
$DIMASZ
 40
4.2333333333
  9
$DIMEXO
 40
1.0
  9
$DIMDLI
 40
3.75
  9
$DIMRND
 40
0.0
  9
$DIMDLE
 40
0.0
  9
$DIMEXE
 40
1.0
  9
$DIMTP
 40
0.0
  9
$DIMTM
 40
0.0
  9
$DIMTXT
 40
5.6444444444
  9
$DIMCEN
 40
2.5
  9
$DIMTSZ
 40
0.0
  9
$DIMTOL
 70
     0
  9
$DIMLIM
 70
     0
  9
$DIMTIH
 70
     1
  9
$DIMTOH
 70
     1
  9
$DIMSE1
 70
     0
  9
$DIMSE2
 70
     0
  9
$DIMTAD
 70
     1
  9
$DIMZIN
 70
     0
  9
$DIMBLK
  1

  9
$DIMASO
 70
     1
  9
$DIMSHO
 70
     1
  9
$DIMPOST
  1

  9
$DIMAPOST
  1

  9
$DIMALT
 70
     0
  9
$DIMALTD
 70
     3
  9
$DIMALTF
 40
0.0393700787
  9
$DIMLFAC
 40
10.0
  9
$DIMTOFL
 70
     1
  9
$DIMTVP
 40
0.0
  9
$DIMTIX
 70
     0
  9
$DIMSOXD
 70
     0
  9
$DIMSAH
 70
     0
  9
$DIMBLK1
  1

  9
$DIMBLK2
  1

  9
$DIMSTYLE
  2
ISO-25
  9
$DIMCLRD
 70
     0
  9
$DIMCLRE
 70
     0
  9
$DIMCLRT
 70
     0
  9
$DIMTFAC
 40
1.0
  9
$DIMGAP
 40
1.524
  9
$DIMJUST
 70
     0
  9
$DIMSD1
 70
     0
  9
$DIMSD2
 70
     0
  9
$DIMTOLJ
 70
     0
  9
$DIMTZIN
 70
     0
  9
$DIMALTZ
 70
     0
  9
$DIMALTTZ
 70
     0
  9
$DIMUPT
 70
     0
  9
$DIMDEC
 70
     2
  9
$DIMTDEC
 70
     2
  9
$DIMALTU
 70
     2
  9
$DIMALTTD
 70
     3
  9
$DIMTXSTY
  7
Standard
  9
$DIMAUNIT
 70
     0
  9
$DIMADEC
 70
     0
  9
$DIMALTRND
 40
0.0
  9
$DIMAZIN
 70
     0
  9
$DIMDSEP
 70
    44
  9
$DIMATFIT
 70
     3
  9
$DIMFRAC
 70
     0
  9
$DIMLDRBLK
  1

  9
$DIMLUNIT
 70
     2
  9
$DIMLWD
 70
    -2
  9
$DIMLWE
 70
    -2
  9
$DIMTMOVE
 70
     0
  9
$LUNITS
 70
     2
  9
$LUPREC
 70
     2
  9
$SKETCHINC
 40
1.0
  9
$FILLETRAD
 40
10.0
  9
$AUNITS
 70
     0
  9
$AUPREC
 70
     0
  9
$MENU
  1
.
  9
$ELEVATION
 40
0.0
  9
$PELEVATION
 40
0.0
  9
$THICKNESS
 40
0.0
  9
$LIMCHECK
 70
     0
  9
$CHAMFERA
 40
10.0
  9
$CHAMFERB
 40
10.0
  9
$CHAMFERC
 40
20.0
  9
$CHAMFERD
 40
0.0
  9
$SKPOLY
 70
     0
  9
$TDCREATE
 40
2454931.430614178
  9
$TDUCREATE
 40
2454931.597280845
  9
$TDUPDATE
 40
2454931.43061419
  9
$TDUUPDATE
 40
2454931.597280857
  9
$TDINDWG
 40
0.0000000116
  9
$TDUSRTIMER
 40
0.0000000116
  9
$USRTIMER
 70
     1
  9
$ANGBASE
 50
0.0
  9
$ANGDIR
 70
     0
  9
$PDMODE
 70
     0
  9
$PDSIZE
 40
-1.0
  9
$PLINEWID
 40
0.0
  9
$SPLFRAME
 70
     0
  9
$SPLINETYPE
 70
     6
  9
$SPLINESEGS
 70
     8
  9
$HANDSEED
  5
2C9
  9
$SURFTAB1
 70
     6
  9
$SURFTAB2
 70
     6
  9
$SURFTYPE
 70
     6
  9
$SURFU
 70
     6
  9
$SURFV
 70
     6
  9
$UCSBASE
  2

  9
$UCSNAME
  2

  9
$UCSORG
 10
0.0
 20
0.0
 30
0.0
  9
$UCSXDIR
 10
1.0
 20
0.0
 30
0.0
  9
$UCSYDIR
 10
0.0
 20
1.0
 30
0.0
  9
$UCSORTHOREF
  2

  9
$UCSORTHOVIEW
 70
     0
  9
$UCSORGTOP
 10
0.0
 20
0.0
 30
0.0
  9
$UCSORGBOTTOM
 10
0.0
 20
0.0
 30
0.0
  9
$UCSORGLEFT
 10
0.0
 20
0.0
 30
0.0
  9
$UCSORGRIGHT
 10
0.0
 20
0.0
 30
0.0
  9
$UCSORGFRONT
 10
0.0
 20
0.0
 30
0.0
  9
$UCSORGBACK
 10
0.0
 20
0.0
 30
0.0
  9
$PUCSBASE
  2

  9
$PUCSNAME
  2

  9
$PUCSORG
 10
0.0
 20
0.0
 30
0.0
  9
$PUCSXDIR
 10
1.0
 20
0.0
 30
0.0
  9
$PUCSYDIR
 10
0.0
 20
1.0
 30
0.0
  9
$PUCSORTHOREF
  2

  9
$PUCSORTHOVIEW
 70
     0
  9
$PUCSORGTOP
 10
0.0
 20
0.0
 30
0.0
  9
$PUCSORGBOTTOM
 10
0.0
 20
0.0
 30
0.0
  9
$PUCSORGLEFT
 10
0.0
 20
0.0
 30
0.0
  9
$PUCSORGRIGHT
 10
0.0
 20
0.0
 30
0.0
  9
$PUCSORGFRONT
 10
0.0
 20
0.0
 30
0.0
  9
$PUCSORGBACK
 10
0.0
 20
0.0
 30
0.0
  9
$USERI1
 70
     0
  9
$USERI2
 70
     0
  9
$USERI3
 70
     0
  9
$USERI4
 70
     0
  9
$USERI5
 70
     0
  9
$USERR1
 40
0.0
  9
$USERR2
 40
0.0
  9
$USERR3
 40
0.0
  9
$USERR4
 40
0.0
  9
$USERR5
 40
0.0
  9
$WORLDVIEW
 70
     1
  9
$SHADEDGE
 70
     3
  9
$SHADEDIF
 70
    70
  9
$TILEMODE
 70
     1
  9
$MAXACTVP
 70
    64
  9
$PINSBASE
 10
0.0
 20
0.0
 30
0.0
  9
$PLIMCHECK
 70
     0
  9
$PEXTMIN
 10
1.0000000000E+20
 20
1.0000000000E+20
 30
1.0000000000E+20
  9
$PEXTMAX
 10
-1.0000000000E+20
 20
-1.0000000000E+20
 30
-1.0000000000E+20
  9
$PLIMMIN
 10
0.0
 20
0.0
  9
$PLIMMAX
 10
420.0
 20
297.0
  9
$UNITMODE
 70
     0
  9
$VISRETAIN
 70
     1
  9
$PLINEGEN
 70
     0
  9
$PSLTSCALE
 70
     1
  9
$TREEDEPTH
 70
  3020
  9
$CMLSTYLE
  2
Standard
  9
$CMLJUST
 70
     0
  9
$CMLSCALE
 40
20.0
  9
$PROXYGRAPHICS
 70
     1
  9
$MEASUREMENT
 70
     1
  9
$CELWEIGHT
370
    -1
  9
$ENDCAPS
280
     0
  9
$JOINSTYLE
280
     0
  9
$LWDISPLAY
290
     1
  9
$INSUNITS
 70
     4
  9
$HYPERLINKBASE
  1

  9
$STYLESHEET
  1

  9
$XEDIT
290
     1
  9
$CEPSNTYPE
380
     0
  9
$PSTYLEMODE
290
     1
  9
$FINGERPRINTGUID
  2
{05614DC6-F613-4D62-A84C-14EC3FBA44AB}
  9
$VERSIONGUID
  2
{FAEB1C32-E019-11D5-929B-00C0DF256EC4}
  9
$EXTNAMES
290
     1
  9
$PSVPSCALE
 40
0.0
  9
$OLESTARTUP
290
     0
  0
ENDSEC
  0
SECTION
  2
CLASSES
  0
CLASS
  1
ACDBDICTIONARYWDFLT
  2
AcDbDictionaryWithDefault
  3
ObjectDBX Classes
 90
        0
280
     0
281
     0
  0
CLASS
  1
VISUALSTYLE
  2
AcDbVisualStyle
  3
ObjectDBX Classes
 90
     4095
280
     0
281
     0
  0
CLASS
  1
SCALE
  2
AcDbScale
  3
ObjectDBX Classes
 90
     1153
280
     0
281
     0
  0
CLASS
  1
DICTIONARYVAR
  2
AcDbDictionaryVar
  3
ObjectDBX Classes
 90
        0
280
     0
281
     0
  0
CLASS
  1
ACDBPLACEHOLDER
  2
AcDbPlaceHolder
  3
ObjectDBX Classes
 90
        0
280
     0
281
     0
  0
CLASS
  1
LAYOUT
  2
AcDbLayout
  3
ObjectDBX Classes
 90
        0
280
     0
281
     0
  0
ENDSEC
  0
SECTION
  2
TABLES
  0
TABLE
  2
VPORT
  5
8
330
0
100
AcDbSymbolTable
 70
     1
  0
VPORT
  5
29
330
8
100
AcDbSymbolTableRecord
100
AcDbViewportTableRecord
  2
*Active
 70
     0
 10
0.0
 20
0.0
 11
1.0
 21
1.0
 12
454.5
 22
340.0
 13
0.0
 23
0.0
 14
10.0
 24
10.0
 15
10.0
 25
10.0
 16
0.0
 26
0.0
 36
1.0
 17
0.0
 27
0.0
 37
0.0
 40
680.0
 41
1.3367647059
 42
50.0
 43
0.0
 44
0.0
 50
0.0
 51
0.0
 71
     0
 72
  2000
 73
     1
 74
     3
 75
     0
 76
     0
 77
     0
 78
     0
281
     0
 65
     1
110
0.0
120
0.0
130
0.0
111
1.0
121
0.0
131
0.0
112
0.0
122
1.0
132
0.0
 79
     0
146
0.0
  0
ENDTAB
  0
TABLE
  2
LTYPE
  5
5
330
0
100
AcDbSymbolTable
 70
     6
  0
LTYPE
  5
14
330
5
100
AcDbSymbolTableRecord
100
AcDbLinetypeTableRecord
  2
ByBlock
 70
     0
  3

 72
    65
 73
     0
 40
0.0
  0
LTYPE
  5
15
330
5
100
AcDbSymbolTableRecord
100
AcDbLinetypeTableRecord
  2
ByLayer
 70
     0
  3

 72
    65
 73
     0
 40
0.0
  0
LTYPE
  5
16
330
5
100
AcDbSymbolTableRecord
100
AcDbLinetypeTableRecord
  2
Continuous
 70
     0
  3
Solid line
 72
    65
 73
     0
 40
0.0
  0
LTYPE
  5
5D
330
5
100
AcDbSymbolTableRecord
100
AcDbLinetypeTableRecord
  2
HIDDEN
 70
     0
  3
Hidden __ __ __ __ __ __ __ __ __ __ __ __ __ __
 72
    65
 73
     2
 40
1.905
 49
1.27
 74
     0
 49
-0.635
 74
     0
  0
LTYPE
  5
5E
330
5
100
AcDbSymbolTableRecord
100
AcDbLinetypeTableRecord
  2
PHANTOM
 70
     0
  3
Phantom ______  __  __  ______  __  __  ______
 72
    65
 73
     6
 40
12.7
 49
6.35
 74
     0
 49
-1.27
 74
     0
 49
1.27
 74
     0
 49
-1.27
 74
     0
 49
1.27
 74
     0
 49
-1.27
 74
     0
  0
LTYPE
  5
5F
330
5
100
AcDbSymbolTableRecord
100
AcDbLinetypeTableRecord
  2
CENTER
 70
     0
  3
Center ____ _ ____ _ ____ _ ____ _ ____ _ ____
 72
    65
 73
     4
 40
10.16
 49
6.35
 74
     0
 49
-1.27
 74
     0
 49
1.27
 74
     0
 49
-1.27
 74
     0
  0
LTYPE
  5
60
330
5
100
AcDbSymbolTableRecord
100
AcDbLinetypeTableRecord
  2
CENTERX2
 70
     0
  3
Center (2x) ________  __  ________  __  _____
 72
    65
 73
     4
 40
20.32
 49
12.7
 74
     0
 49
-2.54
 74
     0
 49
2.54
 74
     0
 49
-2.54
 74
     0
  0
LTYPE
  5
61
330
5
100
AcDbSymbolTableRecord
100
AcDbLinetypeTableRecord
  2
DOT2
 70
     0
  3
Dot (.5x) ........................................
 72
    65
 73
     2
 40
0.635
 49
0.0
 74
     0
 49
-0.635
 74
     0
  0
ENDTAB
  0
TABLE
  2
LAYER
  5
2
330
0
100
AcDbSymbolTable
 70
     5
  0
LAYER
  5
10
330
2
100
AcDbSymbolTableRecord
100
AcDbLayerTableRecord
  2
0
 70
     0
 62
     7
  6
Continuous
370
    -3
390
F
  0
LAYER
  5
62
330
2
100
AcDbSymbolTableRecord
100
AcDbLayerTableRecord
  2
FORMAT
 70
     0
 62
     7
  6
Continuous
370
    -3
390
F
  0
LAYER
  5
63
330
2
100
AcDbSymbolTableRecord
100
AcDbLayerTableRecord
  2
SLD-0
 70
     0
 62
     4
  6
Continuous
370
    -3
390
F
  0
LAYER
  5
64
330
2
100
AcDbSymbolTableRecord
100
AcDbLayerTableRecord
  2
GRS_GAMBAR
 70
     0
 62
     4
  6
Continuous
370
    -3
390
F
  0
LAYER
  5
65
330
2
100
AcDbSymbolTableRecord
100
AcDbLayerTableRecord
  2
G__TOTO
 70
     0
 62
   179
  6
Continuous
370
    -3
390
F
  0
ENDTAB
  0
TABLE
  2
STYLE
  5
3
330
0
100
AcDbSymbolTable
 70
     6
  0
STYLE
  5
11
330
3
100
AcDbSymbolTableRecord
100
AcDbTextStyleTableRecord
  2
Standard
 70
     0
 40
0.0
 41
1.0
 50
0.0
 71
     0
 42
2.5
  3
txt
  4

  0
STYLE
  5
BA
330
3
100
AcDbSymbolTableRecord
100
AcDbTextStyleTableRecord
  2
SLDTEXTSTYLE0
 70
     0
 40
0.0
 41
0.638185654
 50
0.0
 71
     0
 42
0.2
  3
TXT
  4

  0
STYLE
  5
C9
330
3
100
AcDbSymbolTableRecord
100
AcDbTextStyleTableRecord
  2
SLDTEXTSTYLE1
 70
     0
 40
0.0
 41
0.5168
 50
0.0
 71
     0
 42
0.2
  3
TXT
  4

  0
STYLE
  5
CB
330
3
100
AcDbSymbolTableRecord
100
AcDbTextStyleTableRecord
  2
SLDTEXTSTYLE2
 70
     0
 40
0.0
 41
0.605
 50
0.0
 71
     0
 42
0.2
  3
TXT
  4

  0
STYLE
  5
25C
330
3
100
AcDbSymbolTableRecord
100
AcDbTextStyleTableRecord
  2
SLDTEXTSTYLE3
 70
     0
 40
0.0
 41
0.5648529412
 50
0.0
 71
     0
 42
0.2
  3
TXT
  4

  0
STYLE
  5
288
330
3
100
AcDbSymbolTableRecord
100
AcDbTextStyleTableRecord
  2
SLDTEXTSTYLE4
 70
     0
 40
0.0
 41
0.5684782609
 50
0.0
 71
     0
 42
0.2
  3
TXT
  4

  0
ENDTAB
  0
TABLE
  2
VIEW
  5
6
330
0
100
AcDbSymbolTable
 70
     0
  0
ENDTAB
  0
TABLE
  2
UCS
  5
7
330
0
100
AcDbSymbolTable
 70
     0
  0
ENDTAB
  0
TABLE
  2
APPID
  5
9
330
0
100
AcDbSymbolTable
 70
     1
  0
APPID
  5
12
330
9
100
AcDbSymbolTableRecord
100
AcDbRegAppTableRecord
  2
ACAD
 70
     0
  0
ENDTAB
  0
TABLE
  2
DIMSTYLE
  5
A
330
0
100
AcDbSymbolTable
 70
     3
100
AcDbDimStyleTable
  0
DIMSTYLE
105
27
330
A
100
AcDbSymbolTableRecord
100
AcDbDimStyleTableRecord
  2
ISO-25
 70
     0
 41
2.5
 42
0.625
 43
3.75
 44
1.25
 73
     0
 74
     0
 77
     1
 78
     8
140
2.5
141
2.5
143
0.0393700787
147
0.625
171
     3
172
     1
271
     2
272
     2
274
     3
278
    44
283
     0
284
     8
340
11
  0
DIMSTYLE
105
248
102
{ACAD_REACTORS
330
247
102
}
330
A
100
AcDbSymbolTableRecord
100
AcDbDimStyleTableRecord
  2
SLDDIMSTYLE0
 70
     0
 41
4.2333333333
 44
0.0
 45
0.000000001
 78
    12
140
7.1912923177
143
0.0393700787
147
1.7978230794
148
0.000000001
170
     1
173
     1
271
     1
272
     1
284
    12
340
CB
  0
DIMSTYLE
105
26A
330
A
100
AcDbSymbolTableRecord
100
AcDbDimStyleTableRecord
  2
SLDDIMSTYLE1
 70
     0
 41
4.2333333333
 44
0.0
 45
0.000000001
140
4.2333333333
147
1.0583333333
173
     1
271
     0
272
     0
340
11
  0
ENDTAB
  0
TABLE
  2
BLOCK_RECORD
  5
1
330
0
100
AcDbSymbolTable
 70
    17
  0
BLOCK_RECORD
  5
1F
330
1
100
AcDbSymbolTableRecord
100
AcDbBlockTableRecord
  2
*Model_Space
340
22
  0
BLOCK_RECORD
  5
1B
330
1
100
AcDbSymbolTableRecord
100
AcDbBlockTableRecord
  2
*Paper_Space
340
1E
  0
BLOCK_RECORD
  5
23
330
1
100
AcDbSymbolTableRecord
100
AcDbBlockTableRecord
  2
*Paper_Space0
340
26
  0
BLOCK_RECORD
  5
66
330
1
100
AcDbSymbolTableRecord
100
AcDbBlockTableRecord
  2
Block1
340
0
102
{BLKREFS
331
CE
102
}
  0
BLOCK_RECORD
  5
BC
330
1
100
AcDbSymbolTableRecord
100
AcDbBlockTableRecord
  2
template line scale
340
0
102
{BLKREFS
331
241
102
}
  0
BLOCK_RECORD
  5
C6
330
1
100
AcDbSymbolTableRecord
100
AcDbBlockTableRecord
  2
SW_NOTE_0
340
0
102
{BLKREFS
331
CD
102
}
  0
BLOCK_RECORD
  5
CF
330
1
100
AcDbSymbolTableRecord
100
AcDbBlockTableRecord
  2
SW_NOTE_1
340
0
102
{BLKREFS
331
D5
102
}
  0
BLOCK_RECORD
  5
249
330
1
100
AcDbSymbolTableRecord
100
AcDbBlockTableRecord
  2
*D5
340
0
  0
BLOCK_RECORD
  5
258
330
1
100
AcDbSymbolTableRecord
100
AcDbBlockTableRecord
  2
SW_NOTE_2
340
0
102
{BLKREFS
331
262
102
}
  0
BLOCK_RECORD
  5
263
330
1
100
AcDbSymbolTableRecord
100
AcDbBlockTableRecord
  2
SW_NOTE_3
340
0
102
{BLKREFS
331
269
102
}
  0
BLOCK_RECORD
  5
26C
330
1
100
AcDbSymbolTableRecord
100
AcDbBlockTableRecord
  2
SW_NOTE_4
340
0
102
{BLKREFS
331
272
102
}
  0
BLOCK_RECORD
  5
274
330
1
100
AcDbSymbolTableRecord
100
AcDbBlockTableRecord
  2
SW_NOTE_5
340
0
102
{BLKREFS
331
27A
102
}
  0
BLOCK_RECORD
  5
27C
330
1
100
AcDbSymbolTableRecord
100
AcDbBlockTableRecord
  2
SW_NOTE_6
340
0
102
{BLKREFS
331
282
102
}
  0
BLOCK_RECORD
  5
283
330
1
100
AcDbSymbolTableRecord
100
AcDbBlockTableRecord
  2
SW_NOTE_7
340
0
102
{BLKREFS
331
28A
102
}
  0
BLOCK_RECORD
  5
28B
330
1
100
AcDbSymbolTableRecord
100
AcDbBlockTableRecord
  2
SW_NOTE_8
340
0
102
{BLKREFS
331
291
102
}
  0
BLOCK_RECORD
  5
293
330
1
100
AcDbSymbolTableRecord
100
AcDbBlockTableRecord
  2
SW_CENTERMARKSYMBOL_0
340
0
102
{BLKREFS
331
29E
102
}
  0
BLOCK_RECORD
  5
29F
330
1
100
AcDbSymbolTableRecord
100
AcDbBlockTableRecord
  2
SW_CENTERMARKSYMBOL_1
340
0
102
{BLKREFS
331
2AA
102
}
  0
BLOCK_RECORD
  5
2AB
330
1
100
AcDbSymbolTableRecord
100
AcDbBlockTableRecord
  2
SW_CENTERMARKSYMBOL_2
340
0
102
{BLKREFS
331
2B6
102
}
  0
BLOCK_RECORD
  5
2B7
330
1
100
AcDbSymbolTableRecord
100
AcDbBlockTableRecord
  2
SW_CENTERMARKSYMBOL_3
340
0
102
{BLKREFS
331
2C2
102
}
  0
ENDTAB
  0
ENDSEC
  0
SECTION
  2
BLOCKS
  0
BLOCK
  5
20
330
1F
100
AcDbEntity
  8
0
100
AcDbBlockBegin
  2
*Model_Space
 70
     0
 10
0.0
 20
0.0
 30
0.0
  3
*Model_Space
  1

  0
ENDBLK
  5
21
330
1F
100
AcDbEntity
  8
0
100
AcDbBlockEnd
  0
BLOCK
  5
1C
330
1B
100
AcDbEntity
 67
     1
  8
0
100
AcDbBlockBegin
  2
*Paper_Space
 70
     0
 10
0.0
 20
0.0
 30
0.0
  3
*Paper_Space
  1

  0
ENDBLK
  5
1D
330
1B
100
AcDbEntity
 67
     1
  8
0
100
AcDbBlockEnd
  0
BLOCK
  5
24
330
23
100
AcDbEntity
  8
0
100
AcDbBlockBegin
  2
*Paper_Space0
 70
     0
 10
0.0
 20
0.0
 30
0.0
  3
*Paper_Space0
  1

  0
ENDBLK
  5
25
330
23
100
AcDbEntity
  8
0
100
AcDbBlockEnd
  0
BLOCK
  5
67
330
66
100
AcDbEntity
  8
0
100
AcDbBlockBegin
  2
Block1
 70
     0
 10
0.0
 20
0.0
 30
0.0
  3
Block1
  1

  0
ARC
  5
69
330
66
100
AcDbEntity
  8
GRS_GAMBAR
100
AcDbCircle
 10
50.5596373054
 20
89.8512807409
 30
0.0
 40
12.70000000005831
100
AcDbArc
 50
77.678118321
 51
90.0
  0
ARC
  5
6A
330
66
100
AcDbEntity
  8
GRS_GAMBAR
100
AcDbCircle
 10
40.7895241947
 20
89.8512807404
 30
0.0
 40
12.70000000055211
100
AcDbArc
 50
89.999999997
 51
140.1728016809
  0
ARC
  5
6B
330
66
100
AcDbEntity
  8
GRS_GAMBAR
100
AcDbCircle
 10
12.6999999999
 20
44.4801911215
 30
0.0
 40
12.69999999987897
100
AcDbArc
 50
197.678118321
 51
210.0000000016
  0
ARC
  5
6C
330
66
100
AcDbEntity
  8
GRS_GAMBAR
100
AcDbCircle
 10
17.5850565553
 20
36.0190249697
 30
0.0
 40
12.6999999998536
100
AcDbArc
 50
210.0000000007
 51
260.1728016814
  0
ARC
  5
6D
330
66
100
AcDbEntity
  8
GRS_GAMBAR
100
AcDbCircle
 10
70.92233486
 20
34.3783282473
 30
0.0
 40
12.70000000079826
100
AcDbArc
 50
317.67811832
 51
329.9999999985
  0
ARC
  5
6E
330
66
100
AcDbEntity
  8
GRS_GAMBAR
100
AcDbCircle
 10
75.8073914162
 20
42.8394943984
 30
0.0
 40
12.69999999977296
100
AcDbArc
 50
329.9999999983
 51
20.1728016817
  0
ARC
  5
6F
330
66
100
AcDbEntity
  8
GRS_GAMBAR
100
AcDbCircle
 10
50.5596373054
 20
89.8512807409
 30
0.0
 40
12.7000000000583
100
AcDbArc
 50
33.4734623705
 51
77.678118321
  0
ARC
  5
70
330
66
100
AcDbEntity
  8
GRS_GAMBAR
100
AcDbCircle
 10
12.6999999999
 20
44.4801911215
 30
0.0
 40
12.69999999987897
100
AcDbArc
 50
153.4734623698
 51
197.678118321
  0
ARC
  5
71
330
66
100
AcDbEntity
  8
GRS_GAMBAR
100
AcDbCircle
 10
70.92233486
 20
34.3783282473
 30
0.0
 40
12.70000000079826
100
AcDbArc
 50
273.4734623732
 51
317.67811832
  0
ARC
  5
72
330
66
100
AcDbEntity
  8
GRS_GAMBAR
  6
Continuous
 62
   179
100
AcDbCircle
 10
40.7895241947
 20
89.8512807404
 30
0.0
 40
12.70000000055211
100
AcDbArc
 50
89.999999997
 51
140.1728016809
  0
ARC
  5
73
330
66
100
AcDbEntity
  8
GRS_GAMBAR
  6
Continuous
 62
   179
100
AcDbCircle
 10
50.5596373054
 20
89.8512807409
 30
0.0
 40
12.70000000005831
100
AcDbArc
 50
33.4734623705
 51
90.0
  0
ARC
  5
74
330
66
100
AcDbEntity
  8
GRS_GAMBAR
  6
Continuous
 62
   179
100
AcDbCircle
 10
17.5850565553
 20
36.0190249697
 30
0.0
 40
12.6999999998536
100
AcDbArc
 50
210.0000000007
 51
260.1728016814
  0
ARC
  5
75
330
66
100
AcDbEntity
  8
GRS_GAMBAR
  6
Continuous
 62
   179
100
AcDbCircle
 10
12.6999999999
 20
44.4801911215
 30
0.0
 40
12.69999999987897
100
AcDbArc
 50
153.4734623698
 51
210.0000000016
  0
ARC
  5
76
330
66
100
AcDbEntity
  8
GRS_GAMBAR
  6
Continuous
 62
   179
100
AcDbCircle
 10
75.8073914162
 20
42.8394943984
 30
0.0
 40
12.69999999977296
100
AcDbArc
 50
329.9999999983
 51
20.1728016817
  0
ARC
  5
77
330
66
100
AcDbEntity
  8
GRS_GAMBAR
  6
Continuous
 62
   179
100
AcDbCircle
 10
70.92233486
 20
34.3783282473
 30
0.0
 40
12.70000000079806
100
AcDbArc
 50
273.4734623732
 51
329.9999999985
  0
LINE
  5
78
330
66
100
AcDbEntity
  8
GRS_GAMBAR
100
AcDbLine
 10
50.5596373054
 20
102.551280741
 30
0.0
 11
40.7895241953
 21
102.551280741
 31
0.0
  0
LINE
  5
79
330
66
100
AcDbEntity
  8
GRS_GAMBAR
100
AcDbLine
 10
31.0361835686
 20
97.9853047535
 30
0.0
 11
18.4601962959
 21
78.0611782485
 31
0.0
  0
LINE
  5
7A
330
66
100
AcDbEntity
  8
GRS_GAMBAR
100
AcDbLine
 10
18.4601962959
 20
78.0611782485
 30
0.0
 11
32.530085145
 21
70.0624494887
 31
0.0
  0
LINE
  5
7B
330
66
100
AcDbEntity
  8
GRS_GAMBAR
100
AcDbLine
 10
32.530085145
 20
70.0624494887
 30
0.0
 11
53.2698619029
 21
102.2587253865
 31
0.0
  0
LINE
  5
7C
330
66
100
AcDbEntity
  8
GRS_GAMBAR
100
AcDbLine
 10
1.7014773721
 20
38.1301911212
 30
0.0
 11
6.5865339274
 21
29.6690249696
 31
0.0
  0
LINE
  5
7D
330
66
100
AcDbEntity
  8
GRS_GAMBAR
100
AcDbLine
 10
15.4174554383
 20
23.5053722098
 30
0.0
 11
38.9602487761
 21
22.5763110067
 31
0.0
  0
LINE
  5
7E
330
66
100
AcDbEntity
  8
GRS_GAMBAR
100
AcDbLine
 10
38.9602487761
 20
22.5763110067
 30
0.0
 11
38.8524066559
 21
38.760556558
 31
0.0
  0
LINE
  5
7F
330
66
100
AcDbEntity
  8
GRS_GAMBAR
100
AcDbLine
 10
38.8524066559
 20
38.760556558
 30
0.0
 11
0.5997254422
 21
40.6235921501
 31
0.0
  0
LINE
  5
80
330
66
100
AcDbEntity
  8
GRS_GAMBAR
100
AcDbLine
 10
81.9208574885
 20
28.0283282466
 30
0.0
 11
86.8059140438
 21
36.4894943982
 31
0.0
  0
LINE
  5
81
330
66
100
AcDbEntity
  8
GRS_GAMBAR
100
AcDbLine
 10
87.7283331587
 20
47.2191231458
 30
0.0
 11
76.7615270935
 21
68.0723108539
 31
0.0
  0
LINE
  5
82
330
66
100
AcDbEntity
  8
GRS_GAMBAR
100
AcDbLine
 10
76.7615270935
 20
68.0723108539
 30
0.0
 11
62.7994803649
 21
59.8867940624
 31
0.0
  0
LINE
  5
83
330
66
100
AcDbEntity
  8
GRS_GAMBAR
100
AcDbLine
 10
62.7994803649
 20
59.8867940624
 30
0.0
 11
80.3123848207
 21
25.8274825725
 31
0.0
  0
LINE
  5
84
330
66
100
AcDbEntity
  8
GRS_GAMBAR
100
AcDbLine
 10
53.2698619029
 20
102.2587253865
 30
0.0
 11
45.3678063337
 21
89.9916328218
 31
0.0
  0
LINE
  5
85
330
66
100
AcDbEntity
  8
GRS_GAMBAR
100
AcDbLine
 10
45.3678063337
 20
89.9916328218
 30
0.0
 11
57.680146021
 21
77.9774401014
 31
0.0
  0
LINE
  5
86
330
66
100
AcDbEntity
  8
GRS_GAMBAR
100
AcDbLine
 10
57.680146021
 20
77.9774401014
 30
0.0
 11
52.1174939067
 21
74.4668795831
 31
0.0
  0
LINE
  5
87
330
66
100
AcDbEntity
  8
GRS_GAMBAR
100
AcDbLine
 10
52.1174939067
 20
74.4668795831
 30
0.0
 11
68.8005549205
 21
74.5270047811
 31
0.0
  0
LINE
  5
88
330
66
100
AcDbEntity
  8
GRS_GAMBAR
100
AcDbLine
 10
68.8005549205
 20
74.5270047811
 30
0.0
 11
73.782472283
 21
89.9718154402
 31
0.0
  0
LINE
  5
89
330
66
100
AcDbEntity
  8
GRS_GAMBAR
100
AcDbLine
 10
73.782472283
 20
89.9718154402
 30
0.0
 11
69.4181110421
 21
86.9876719853
 31
0.0
  0
LINE
  5
8A
330
66
100
AcDbEntity
  8
GRS_GAMBAR
100
AcDbLine
 10
69.4181110421
 20
86.9876719853
 30
0.0
 11
61.153232739
 21
96.8559745808
 31
0.0
  0
LINE
  5
8B
330
66
100
AcDbEntity
  8
GRS_GAMBAR
100
AcDbLine
 10
19.4227932766
 20
56.5836528762
 30
0.0
 11
25.244353924
 21
53.5215350928
 31
0.0
  0
LINE
  5
8C
330
66
100
AcDbEntity
  8
GRS_GAMBAR
100
AcDbLine
 10
25.244353924
 20
53.5215350928
 30
0.0
 11
16.8507534682
 21
67.9394271442
 31
0.0
  0
LINE
  5
8D
330
66
100
AcDbEntity
  8
GRS_GAMBAR
100
AcDbLine
 10
16.8507534682
 20
67.9394271442
 30
0.0
 11
0.9841963998
 21
64.5314888101
 31
0.0
  0
LINE
  5
8E
330
66
100
AcDbEntity
  8
GRS_GAMBAR
100
AcDbLine
 10
0.9841963998
 20
64.5314888101
 30
0.0
 11
5.7507210602
 21
62.2439128323
 31
0.0
  0
LINE
  5
8F
330
66
100
AcDbEntity
  8
GRS_GAMBAR
100
AcDbLine
 10
5.7507210602
 20
62.2439128323
 30
0.0
 11
1.3369594722
 21
50.1521669645
 31
0.0
  0
LINE
  5
90
330
66
100
AcDbEntity
  8
GRS_GAMBAR
100
AcDbLine
 10
0.5997254422
 20
40.6235921501
 30
0.0
 11
15.1743670181
 21
39.9137575676
 31
0.0
  0
LINE
  5
91
330
66
100
AcDbEntity
  8
GRS_GAMBAR
100
AcDbLine
 10
15.1743670181
 20
39.9137575676
 30
0.0
 11
19.4227932766
 21
56.5836528762
 31
0.0
  0
LINE
  5
92
330
66
100
AcDbEntity
  8
GRS_GAMBAR
100
AcDbLine
 10
80.3123848207
 20
25.8274825725
 30
0.0
 11
73.6397988137
 21
38.8044097196
 31
0.0
  0
LINE
  5
93
330
66
100
AcDbEntity
  8
GRS_GAMBAR
100
AcDbLine
 10
73.6397988137
 20
38.8044097196
 30
0.0
 11
57.0790328685
 21
34.1487071314
 31
0.0
  0
LINE
  5
94
330
66
100
AcDbEntity
  8
GRS_GAMBAR
100
AcDbLine
 10
57.0790328685
 20
34.1487071314
 30
0.0
 11
56.8201243354
 21
40.7213854332
 31
0.0
  0
LINE
  5
95
330
66
100
AcDbEntity
  8
GRS_GAMBAR
100
AcDbLine
 10
56.8201243354
 20
40.7213854332
 30
0.0
 11
48.5306637774
 21
26.2433681838
 31
0.0
  0
LINE
  5
96
330
66
100
AcDbEntity
  8
GRS_GAMBAR
100
AcDbLine
 10
48.5306637774
 20
26.2433681838
 30
0.0
 11
59.4153034836
 21
14.2064958587
 31
0.0
  0
LINE
  5
97
330
66
100
AcDbEntity
  8
GRS_GAMBAR
100
AcDbLine
 10
59.4153034836
 20
14.2064958587
 30
0.0
 11
59.013140063
 21
19.4782152915
 31
0.0
  0
LINE
  5
98
330
66
100
AcDbEntity
  8
GRS_GAMBAR
100
AcDbLine
 10
59.013140063
 20
19.4782152915
 30
0.0
 11
71.6917799549
 21
21.7016585637
 31
0.0
  0
LINE
  5
99
330
66
100
AcDbEntity
  8
GRS_GAMBAR
  6
Continuous
 62
   179
100
AcDbLine
 10
18.4601962959
 20
78.0611782485
 30
0.0
 11
31.0361835686
 21
97.9853047535
 31
0.0
  0
LINE
  5
9A
330
66
100
AcDbEntity
  8
GRS_GAMBAR
  6
Continuous
 62
   179
100
AcDbLine
 10
40.7895241953
 20
102.551280741
 30
0.0
 11
50.5596373054
 21
102.551280741
 31
0.0
  0
LINE
  5
9B
330
66
100
AcDbEntity
  8
GRS_GAMBAR
  6
Continuous
 62
   179
100
AcDbLine
 10
61.153232739
 20
96.8559745808
 30
0.0
 11
69.4181110421
 21
86.9876719853
 31
0.0
  0
LINE
  5
9C
330
66
100
AcDbEntity
  8
GRS_GAMBAR
  6
Continuous
 62
   179
100
AcDbLine
 10
69.4181110421
 20
86.9876719853
 30
0.0
 11
73.782472283
 21
89.9718154402
 31
0.0
  0
LINE
  5
9D
330
66
100
AcDbEntity
  8
GRS_GAMBAR
  6
Continuous
 62
   179
100
AcDbLine
 10
73.782472283
 20
89.9718154402
 30
0.0
 11
68.8005549205
 21
74.5270047811
 31
0.0
  0
LINE
  5
9E
330
66
100
AcDbEntity
  8
GRS_GAMBAR
  6
Continuous
 62
   179
100
AcDbLine
 10
68.8005549205
 20
74.5270047811
 30
0.0
 11
52.1174939067
 21
74.4668795831
 31
0.0
  0
LINE
  5
9F
330
66
100
AcDbEntity
  8
GRS_GAMBAR
  6
Continuous
 62
   179
100
AcDbLine
 10
52.1174939067
 20
74.4668795831
 30
0.0
 11
57.680146021
 21
77.9774401014
 31
0.0
  0
LINE
  5
A0
330
66
100
AcDbEntity
  8
GRS_GAMBAR
  6
Continuous
 62
   179
100
AcDbLine
 10
57.680146021
 20
77.9774401014
 30
0.0
 11
45.3678063337
 21
89.9916328218
 31
0.0
  0
LINE
  5
A1
330
66
100
AcDbEntity
  8
GRS_GAMBAR
  6
Continuous
 62
   179
370
    30
100
AcDbLine
 10
53.2698619029
 20
102.2587253865
 30
0.0
 11
32.530085145
 21
70.0624494887
 31
0.0
  0
LINE
  5
A2
330
66
100
AcDbEntity
  8
GRS_GAMBAR
  6
Continuous
 62
   179
100
AcDbLine
 10
32.530085145
 20
70.0624494887
 30
0.0
 11
18.4601962959
 21
78.0611782485
 31
0.0
  0
LINE
  5
A3
330
66
100
AcDbEntity
  8
GRS_GAMBAR
  6
Continuous
 62
   179
100
AcDbLine
 10
38.9602487761
 20
22.5763110067
 30
0.0
 11
15.4174554383
 21
23.5053722098
 31
0.0
  0
LINE
  5
A4
330
66
100
AcDbEntity
  8
GRS_GAMBAR
  6
Continuous
 62
   179
100
AcDbLine
 10
6.5865339274
 20
29.6690249696
 30
0.0
 11
1.7014773721
 21
38.1301911212
 31
0.0
  0
LINE
  5
A5
330
66
100
AcDbEntity
  8
GRS_GAMBAR
  6
Continuous
 62
   179
100
AcDbLine
 10
1.3369594722
 20
50.1521669645
 30
0.0
 11
5.7507210602
 21
62.2439128323
 31
0.0
  0
LINE
  5
A6
330
66
100
AcDbEntity
  8
GRS_GAMBAR
  6
Continuous
 62
   179
100
AcDbLine
 10
5.7507210602
 20
62.2439128323
 30
0.0
 11
0.9841963998
 21
64.5314888101
 31
0.0
  0
LINE
  5
A7
330
66
100
AcDbEntity
  8
GRS_GAMBAR
  6
Continuous
 62
   179
100
AcDbLine
 10
0.9841963998
 20
64.5314888101
 30
0.0
 11
16.8507534682
 21
67.9394271442
 31
0.0
  0
LINE
  5
A8
330
66
100
AcDbEntity
  8
GRS_GAMBAR
  6
Continuous
 62
   179
100
AcDbLine
 10
16.8507534682
 20
67.9394271442
 30
0.0
 11
25.244353924
 21
53.5215350928
 31
0.0
  0
LINE
  5
A9
330
66
100
AcDbEntity
  8
GRS_GAMBAR
  6
Continuous
 62
   179
100
AcDbLine
 10
25.244353924
 20
53.5215350928
 30
0.0
 11
19.4227932766
 21
56.5836528762
 31
0.0
  0
LINE
  5
AA
330
66
100
AcDbEntity
  8
GRS_GAMBAR
  6
Continuous
 62
   179
100
AcDbLine
 10
19.4227932766
 20
56.5836528762
 30
0.0
 11
15.1743670181
 21
39.9137575676
 31
0.0
  0
LINE
  5
AB
330
66
100
AcDbEntity
  8
GRS_GAMBAR
  6
Continuous
 62
   179
370
    30
100
AcDbLine
 10
0.5997254422
 20
40.6235921501
 30
0.0
 11
38.8524066559
 21
38.760556558
 31
0.0
  0
LINE
  5
AC
330
66
100
AcDbEntity
  8
GRS_GAMBAR
  6
Continuous
 62
   179
100
AcDbLine
 10
38.8524066559
 20
38.760556558
 30
0.0
 11
38.9602487761
 21
22.5763110067
 31
0.0
  0
LINE
  5
AD
330
66
100
AcDbEntity
  8
GRS_GAMBAR
  6
Continuous
 62
   179
100
AcDbLine
 10
76.7615270935
 20
68.0723108539
 30
0.0
 11
87.7283331587
 21
47.2191231458
 31
0.0
  0
LINE
  5
AE
330
66
100
AcDbEntity
  8
GRS_GAMBAR
  6
Continuous
 62
   179
100
AcDbLine
 10
86.8059140438
 20
36.4894943982
 30
0.0
 11
81.9208574885
 21
28.0283282466
 31
0.0
  0
LINE
  5
AF
330
66
100
AcDbEntity
  8
GRS_GAMBAR
  6
Continuous
 62
   179
100
AcDbLine
 10
71.6917799549
 20
21.7016585637
 30
0.0
 11
59.013140063
 21
19.4782152915
 31
0.0
  0
LINE
  5
B0
330
66
100
AcDbEntity
  8
GRS_GAMBAR
  6
Continuous
 62
   179
100
AcDbLine
 10
59.013140063
 20
19.4782152915
 30
0.0
 11
59.4153034836
 21
14.2064958587
 31
0.0
  0
LINE
  5
B1
330
66
100
AcDbEntity
  8
GRS_GAMBAR
  6
Continuous
 62
   179
100
AcDbLine
 10
59.4153034836
 20
14.2064958587
 30
0.0
 11
48.5306637774
 21
26.2433681838
 31
0.0
  0
LINE
  5
B2
330
66
100
AcDbEntity
  8
GRS_GAMBAR
  6
Continuous
 62
   179
100
AcDbLine
 10
48.5306637774
 20
26.2433681838
 30
0.0
 11
56.8201243354
 21
40.7213854332
 31
0.0
  0
LINE
  5
B3
330
66
100
AcDbEntity
  8
GRS_GAMBAR
  6
Continuous
 62
   179
100
AcDbLine
 10
56.8201243354
 20
40.7213854332
 30
0.0
 11
57.0790328685
 21
34.1487071314
 31
0.0
  0
LINE
  5
B4
330
66
100
AcDbEntity
  8
GRS_GAMBAR
  6
Continuous
 62
   179
100
AcDbLine
 10
57.0790328685
 20
34.1487071314
 30
0.0
 11
73.6397988137
 21
38.8044097196
 31
0.0
  0
LINE
  5
B5
330
66
100
AcDbEntity
  8
GRS_GAMBAR
  6
Continuous
 62
   179
370
    30
100
AcDbLine
 10
80.3123848207
 20
25.8274825725
 30
0.0
 11
62.7994803649
 21
59.8867940624
 31
0.0
  0
LINE
  5
B6
330
66
100
AcDbEntity
  8
GRS_GAMBAR
  6
Continuous
 62
   179
100
AcDbLine
 10
62.7994803649
 20
59.8867940624
 30
0.0
 11
76.7615270935
 21
68.0723108539
 31
0.0
  0
HATCH
  5
B7
330
66
100
AcDbEntity
  8
GRS_GAMBAR
 62
   179
100
AcDbHatch
 10
0.0
 20
0.0
 30
0.0
210
0.0
220
0.0
230
1.0
  2
SOLID
 70
     1
 71
     0
 91
        1
 92
        0
 93
        6
 72
     1
 10
81.92085748854794
 20
28.02832824659674
 11
86.80591404383442
 21
36.48949439819749
 72
     2
 10
75.80739141615211
 20
42.83949439840096
 40
12.69999999977226
 50
329.9999999983485
 51
380.1728016816779
 73
     1
 72
     1
 10
87.72833315870798
 20
47.2191231457717
 11
76.76152709348116
 21
68.07231085394116
 72
     1
 10
76.76152709348116
 20
68.07231085394116
 11
62.79948036490168
 21
59.88679406240527
 72
     1
 10
62.79948036490168
 20
59.88679406240527
 11
80.31238482072922
 21
25.82748257246781
 72
     2
 10
70.92233485996502
 20
34.37832824729004
 40
12.70000000079782
 50
317.678118319967
 51
329.9999999984663
 73
     1
 97
        0
 75
     0
 76
     1
 98
        1
 10
0.0
 20
0.0
  0
HATCH
  5
B8
330
66
100
AcDbEntity
  8
GRS_GAMBAR
 62
   179
100
AcDbHatch
 10
0.0
 20
0.0
 30
0.0
210
0.0
220
0.0
230
1.0
  2
SOLID
 70
     1
 71
     0
 91
        1
 92
        0
 93
        6
 72
     1
 10
1.701477372096249
 20
38.13019112124682
 11
6.586533927391613
 21
29.66902496963009
 72
     2
 10
17.58505655525155
 20
36.0190249696879
 40
12.69999999985368
 50
210.0000000006833
 51
260.1728016813727
 73
     1
 72
     1
 10
15.41745543826067
 20
23.50537220984572
 11
38.9602487760925
 21
22.57631100665058
 72
     1
 10
38.9602487760925
 20
22.57631100665058
 11
38.85240665591994
 21
38.76055655804001
 72
     1
 10
38.85240665591994
 20
38.76055655804001
 11
0.5997254422069886
 21
40.62359215012768
 72
     2
 10
12.69999999987803
 20
44.48019112149226
 40
12.69999999987985
 50
197.678118321045
 51
210.0000000015927
 73
     1
 97
        0
 75
     0
 76
     1
 98
        1
 10
0.0
 20
0.0
  0
HATCH
  5
B9
330
66
100
AcDbEntity
  8
GRS_GAMBAR
 62
   179
100
AcDbHatch
 10
0.0
 20
0.0
 30
0.0
210
0.0
220
0.0
230
1.0
  2
SOLID
 70
     1
 71
     0
 91
        1
 92
        0
 93
        6
 72
     1
 10
50.55963730542246
 20
102.5512807409807
 11
40.78952419534332
 21
102.5512807409807
 72
     2
 10
40.78952419468607
 20
89.8512807404288
 40
12.70000000055234
 50
89.99999999703482
 51
140.1728016808893
 73
     1
 72
     1
 10
31.03618356855264
 20
97.98530475346534
 11
18.46019629594764
 21
78.06117824848124
 72
     1
 10
18.46019629594764
 20
78.06117824848124
 11
32.53008514500522
 21
70.0624494886548
 72
     1
 10
32.53008514500522
 20
70.0624494886548
 11
53.26986190289063
 21
102.2587253864873
 72
     2
 10
50.55963730542246
 20
89.85128074092263
 40
12.70000000005804
 50
77.6781183210196
 51
90.0
 73
     1
 97
        0
 75
     0
 76
     1
 98
        1
 10
0.0
 20
0.0
  0
MTEXT
  5
BB
330
66
100
AcDbEntity
  8
GRS_GAMBAR
100
AcDbMText
 10
8.1315783618
 20
3.5176739225
 30
0.0
 40
15.875
 41
0.0
 71
     1
 72
     1
  1
Recycled
  7
SLDTEXTSTYLE0
 73
     1
 44
1.0
  0
ENDBLK
  5
68
330
66
100
AcDbEntity
  8
0
100
AcDbBlockEnd
  0
BLOCK
  5
BD
330
BC
100
AcDbEntity
  8
0
100
AcDbBlockBegin
  2
template line scale
 70
     0
 10
0.0
 20
0.0
 30
0.0
  3
template line scale
  1

  0
LINE
  5
BF
330
BC
100
AcDbEntity
  8
FORMAT
370
     0
100
AcDbLine
 10
308.8291516468
 20
-142.8002221194
 30
0.0
 11
334.2291516468
 21
-142.8002221194
 31
0.0
  0
LINE
  5
C0
330
BC
100
AcDbEntity
  8
FORMAT
370
    15
100
AcDbLine
 10
308.8291516468
 20
-140.5853455549
 30
0.0
 11
308.8291516468
 21
-145.8397463772
 31
0.0
  0
LINE
  5
C1
330
BC
100
AcDbEntity
  8
FORMAT
370
     0
100
AcDbLine
 10
334.2291516468
 20
-142.8002221194
 30
0.0
 11
359.6291516468
 21
-142.8002221194
 31
0.0
  0
LINE
  5
C2
330
BC
100
AcDbEntity
  8
FORMAT
370
     0
100
AcDbLine
 10
359.6291516468
 20
-142.8002221194
 30
0.0
 11
385.0291516468
 21
-142.8002221194
 31
0.0
  0
LINE
  5
C3
330
BC
100
AcDbEntity
  8
FORMAT
370
    15
100
AcDbLine
 10
334.2291516468
 20
-140.5853455549
 30
0.0
 11
334.2291516468
 21
-145.8397463772
 31
0.0
  0
LINE
  5
C4
330
BC
100
AcDbEntity
  8
FORMAT
370
    15
100
AcDbLine
 10
359.6291516468
 20
-145.8397463772
 30
0.0
 11
359.6291516468
 21
-140.5853455549
 31
0.0
  0
LINE
  5
C5
330
BC
100
AcDbEntity
  8
FORMAT
370
    15
100
AcDbLine
 10
385.0291516468
 20
-140.5853455549
 30
0.0
 11
385.0291516468
 21
-145.8397463772
 31
0.0
  0
INSERT
  5
CD
330
BC
100
AcDbEntity
  8
FORMAT
 62
     7
100
AcDbBlockReference
  2
SW_NOTE_0
 10
306.9904107435
 20
-163.4539217701
 30
0.0
  0
ENDBLK
  5
BE
330
BC
100
AcDbEntity
  8
0
100
AcDbBlockEnd
  0
BLOCK
  5
C7
330
C6
100
AcDbEntity
  8
0
100
AcDbBlockBegin
  2
SW_NOTE_0
 70
     0
 10
0.0
 20
0.0
 30
0.0
  3
SW_NOTE_0
  1

  0
MTEXT
  5
CA
330
C6
100
AcDbEntity
  8
FORMAT
 62
     0
100
AcDbMText
 10
0.0
 20
9.5498435055
 30
0.0
 40
7.4083333333
 41
0.0
 71
     1
 72
     1
  1
0       1       2       3
  7
SLDTEXTSTYLE1
 73
     1
 44
1.0
  0
MTEXT
  5
CC
330
C6
100
AcDbEntity
  8
FORMAT
 62
     0
100
AcDbMText
 10
6.2284767628
 20
-10.2057118113
 30
0.0
 40
7.4083333333
 41
0.0
 71
     1
 72
     1
  1
SCALE: 1" = 1"
  7
SLDTEXTSTYLE2
 73
     1
 44
1.0
  0
ENDBLK
  5
C8
330
C6
100
AcDbEntity
  8
0
100
AcDbBlockEnd
  0
BLOCK
  5
D0
330
CF
100
AcDbEntity
  8
0
100
AcDbBlockBegin
  2
SW_NOTE_1
 70
     0
 10
0.0
 20
0.0
 30
0.0
  3
SW_NOTE_1
  1

  0
MTEXT
  5
D2
330
CF
100
AcDbEntity
  8
SLD-0
 62
     0
100
AcDbMText
 10
0.0
 20
8.1855801476
 30
0.0
 40
6.35
 41
0.0
 71
     1
 72
     1
  1
LT624 / LT626
  7
SLDTEXTSTYLE0
 73
     1
 44
1.0
  0
MTEXT
  5
D3
330
CF
100
AcDbEntity
  8
SLD-0
 62
     0
100
AcDbMText
 10
12.8822680563
 20
-0.2810864168
 30
0.0
 40
6.35
 41
0.0
 71
     1
 72
     1
  1
0GU164
  7
SLDTEXTSTYLE0
 73
     1
 44
1.0
  0
MTEXT
  5
D4
330
CF
100
AcDbEntity
  8
SLD-0
 62
     0
100
AcDbMText
 10
8.9135188609
 20
-8.7477529811
 30
0.0
 40
6.35
 41
0.0
 71
     1
 72
     1
  1
APR 2009
  7
SLDTEXTSTYLE0
 73
     1
 44
1.0
  0
ENDBLK
  5
D1
330
CF
100
AcDbEntity
  8
0
100
AcDbBlockEnd
  0
BLOCK
  5
24A
330
249
100
AcDbEntity
  8
0
100
AcDbBlockBegin
  2
*D5
 70
     1
 10
0.0
 20
0.0
 30
0.0
  3
*D5
  1

  0
SOLID
  5
24C
330
249
100
AcDbEntity
  8
G__TOTO
100
AcDbTrace
 10
610.6287535805
 20
631.5533145755
 30
0.0
 11
616.0224014669
 21
626.6699485341
 31
0.0
 12
617.240816791
 22
628.5169810105
 32
0.0
 13
617.240816791
 23
628.5169810105
 33
0.0
  0
LINE
  5
24D
330
249
100
AcDbEntity
  8
G__TOTO
100
AcDbLine
 10
725.4619079063
 20
581.6805581171
 30
0.0
 11
725.4619079063
 21
572.2987537103
 31
0.0
  0
LINE
  5
24E
330
249
100
AcDbEntity
  8
G__TOTO
100
AcDbLine
 10
725.4619079063
 20
572.2987537103
 30
0.0
 11
727.1073519741
 21
572.2987537103
 31
0.0
  0
LINE
  5
24F
330
249
100
AcDbEntity
  8
G__TOTO
100
AcDbLine
 10
725.4619079063
 20
581.6805581171
 30
0.0
 11
727.1073519741
 21
581.6805581171
 31
0.0
  0
LINE
  5
250
330
249
100
AcDbEntity
  8
G__TOTO
100
AcDbLine
 10
751.2436129911
 20
581.6805581171
 30
0.0
 11
751.2436129911
 21
572.2987537103
 31
0.0
  0
LINE
  5
251
330
249
100
AcDbEntity
  8
G__TOTO
100
AcDbLine
 10
751.2436129911
 20
572.2987537103
 30
0.0
 11
749.5981689233
 21
572.2987537103
 31
0.0
  0
LINE
  5
252
330
249
100
AcDbEntity
  8
G__TOTO
100
AcDbLine
 10
751.2436129911
 20
581.6805581171
 30
0.0
 11
749.5981689233
 21
581.6805581171
 31
0.0
  0
LINE
  5
253
330
249
100
AcDbEntity
  8
G__TOTO
100
AcDbLine
 10
610.6287535805
 20
631.5533145755
 30
0.0
 11
718.441375703
 21
560.43353049
 31
0.0
  0
LINE
  5
254
330
249
100
AcDbEntity
  8
G__TOTO
100
AcDbLine
 10
718.441375703
 20
560.43353049
 30
0.0
 11
755.5673570589
 21
560.43353049
 31
0.0
  0
MTEXT
  5
255
330
249
100
AcDbEntity
  8
G__TOTO
100
AcDbMText
 10
726.5268245165
 20
569.9833739954
 30
0.0
 40
7.4083333333
 41
0.0
 71
     1
 72
     1
  1
%%c
  7
SLDTEXTSTYLE2
 73
     1
 44
1.0
  0
MTEXT
  5
256
330
249
100
AcDbEntity
  8
G__TOTO
100
AcDbMText
 10
736.4604997707
 20
569.9833739954
 30
0.0
 40
7.4083333333
 41
0.0
 71
     1
 72
     1
  1
9.5
  7
SLDTEXTSTYLE2
 73
     1
 44
1.0
  0
MTEXT
  5
257
330
249
100
AcDbEntity
  8
G__TOTO
100
AcDbMText
 10
728.7527960419
 20
581.0207909446
 30
0.0
 40
7.4083333333
 41
0.0
 71
     1
 72
     1
  1
0.38
  7
SLDTEXTSTYLE2
 73
     1
 44
1.0
  0
ENDBLK
  5
24B
330
249
100
AcDbEntity
  8
0
100
AcDbBlockEnd
  0
BLOCK
  5
259
330
258
100
AcDbEntity
  8
0
100
AcDbBlockBegin
  2
SW_NOTE_2
 70
     0
 10
0.0
 20
0.0
 30
0.0
  3
SW_NOTE_2
  1

  0
MTEXT
  5
25B
330
258
100
AcDbEntity
  8
FORMAT
 62
     0
100
AcDbMText
 10
0.0
 20
8.1855801476
 30
0.0
 40
6.35
 41
0.0
 71
     1
 72
     1
  1
PAPER SIZE:  
  7
SLDTEXTSTYLE2
 73
     1
 44
1.0
  0
MTEXT
  5
25D
330
258
100
AcDbEntity
  8
FORMAT
 62
     0
100
AcDbMText
 10
10.0
 20
-0.2810864168
 30
0.0
 40
6.35
 41
0.0
 71
     1
 72
     1
  1
23" X 35"    25" X 38"   26" X 40"
  7
SLDTEXTSTYLE3
 73
     1
 44
1.0
  0
MTEXT
  5
25E
330
258
100
AcDbEntity
  8
FORMAT
 62
     0
100
AcDbMText
 10
0.0
 20
-8.7477529811
 30
0.0
 40
6.35
 41
0.0
 71
     1
 72
     1
  1
LINE WEIGHT: 1.00mm
  7
SLDTEXTSTYLE2
 73
     1
 44
1.0
  0
MTEXT
  5
25F
330
258
100
AcDbEntity
  8
FORMAT
 62
     0
100
AcDbMText
 10
0.0
 20
-17.2144195455
 30
0.0
 40
6.35
 41
0.0
 71
     1
 72
     1
  1
PAPER SPEC:
  7
SLDTEXTSTYLE2
 73
     1
 44
1.0
  0
MTEXT
  5
260
330
258
100
AcDbEntity
  8
FORMAT
 62
     0
100
AcDbMText
 10
10.0
 20
-25.6810861098
 30
0.0
 40
6.35
 41
0.0
 71
     1
 72
     1
  1
70# OFFSET UNCOATED SHEET
  7
SLDTEXTSTYLE2
 73
     1
 44
1.0
  0
MTEXT
  5
261
330
258
100
AcDbEntity
  8
FORMAT
 62
     0
100
AcDbMText
 10
10.0
 20
-34.1477526742
 30
0.0
 40
6.35
 41
0.0
 71
     1
 72
     1
  1
BRIGHTNESS FACTOR- 86% OR HIGHER 
  7
SLDTEXTSTYLE2
 73
     1
 44
1.0
  0
ENDBLK
  5
25A
330
258
100
AcDbEntity
  8
0
100
AcDbBlockEnd
  0
BLOCK
  5
264
330
263
100
AcDbEntity
  8
0
100
AcDbBlockBegin
  2
SW_NOTE_3
 70
     0
 10
0.0
 20
0.0
 30
0.0
  3
SW_NOTE_3
  1

  0
MTEXT
  5
266
330
263
100
AcDbEntity
  8
G__TOTO
 62
     0
100
AcDbMText
 10
-184.8807262254
 20
23.33294927
 30
0.0
 40
7.4083333333
 41
0.0
 71
     1
 72
     1
  1
MOUNTING HOLE ( 4 PLACES )
  7
SLDTEXTSTYLE2
 73
     1
 44
1.0
  0
MTEXT
  5
267
330
263
100
AcDbEntity
  8
G__TOTO
 62
     0
100
AcDbMText
 10
-184.8807262254
 20
13.4551716116
 30
0.0
 40
7.4083333333
 41
0.0
 71
     1
 72
     1
  1
AGUJERO DE MONTAJE ( 4 LUGARES )
  7
SLDTEXTSTYLE2
 73
     1
 44
1.0
  0
MTEXT
  5
268
330
263
100
AcDbEntity
  8
G__TOTO
 62
     0
100
AcDbMText
 10
-184.8807262254
 20
3.5773939531
 30
0.0
 40
7.4083333333
 41
0.0
 71
     1
 72
     1
  1
TROU POUR MONTAGE ( 4 ENROITS )
  7
SLDTEXTSTYLE2
 73
     1
 44
1.0
  0
ENDBLK
  5
265
330
263
100
AcDbEntity
  8
0
100
AcDbBlockEnd
  0
BLOCK
  5
26D
330
26C
100
AcDbEntity
  8
0
100
AcDbBlockBegin
  2
SW_NOTE_4
 70
     0
 10
0.0
 20
0.0
 30
0.0
  3
SW_NOTE_4
  1

  0
MTEXT
  5
26F
330
26C
100
AcDbEntity
  8
G__TOTO
 62
     0
100
AcDbMText
 10
-108.0551510585
 20
23.3266163821
 30
0.0
 40
7.4083333333
 41
0.0
 71
     1
 72
     1
  1
RIM OF LAVATORY
  7
SLDTEXTSTYLE2
 73
     1
 44
1.0
  0
MTEXT
  5
270
330
26C
100
AcDbEntity
  8
G__TOTO
 62
     0
100
AcDbMText
 10
-108.0551510585
 20
13.4488387237
 30
0.0
 40
7.4083333333
 41
0.0
 71
     1
 72
     1
  1
BORDE DEL LAVABO
  7
SLDTEXTSTYLE2
 73
     1
 44
1.0
  0
MTEXT
  5
271
330
26C
100
AcDbEntity
  8
G__TOTO
 62
     0
100
AcDbMText
 10
-108.0551510585
 20
3.5710610653
 30
0.0
 40
7.4083333333
 41
0.0
 71
     1
 72
     1
  1
REBORDE DE LAVABO
  7
SLDTEXTSTYLE2
 73
     1
 44
1.0
  0
ENDBLK
  5
26E
330
26C
100
AcDbEntity
  8
0
100
AcDbBlockEnd
  0
BLOCK
  5
275
330
274
100
AcDbEntity
  8
0
100
AcDbBlockBegin
  2
SW_NOTE_5
 70
     0
 10
0.0
 20
0.0
 30
0.0
  3
SW_NOTE_5
  1

  0
MTEXT
  5
277
330
274
100
AcDbEntity
  8
G__TOTO
 62
     0
100
AcDbMText
 10
-187.6284708129
 20
23.3329376923
 30
0.0
 40
7.4083333333
 41
0.0
 71
     1
 72
     1
  1
CUT ALONG THIS LINE
  7
SLDTEXTSTYLE2
 73
     1
 44
1.0
  0
MTEXT
  5
278
330
274
100
AcDbEntity
  8
G__TOTO
 62
     0
100
AcDbMText
 10
-187.6284708129
 20
13.4551600339
 30
0.0
 40
7.4083333333
 41
0.0
 71
     1
 72
     1
  1
CORTE A LO LARGO DE ESTA LINEA
  7
SLDTEXTSTYLE2
 73
     1
 44
1.0
  0
MTEXT
  5
279
330
274
100
AcDbEntity
  8
G__TOTO
 62
     0
100
AcDbMText
 10
-187.6284708129
 20
3.5773823755
 30
0.0
 40
7.4083333333
 41
0.0
 71
     1
 72
     1
  1
DECOUPER AU LONG DE CETTE LIGNE
  7
SLDTEXTSTYLE2
 73
     1
 44
1.0
  0
ENDBLK
  5
276
330
274
100
AcDbEntity
  8
0
100
AcDbBlockEnd
  0
BLOCK
  5
27D
330
27C
100
AcDbEntity
  8
0
100
AcDbBlockBegin
  2
SW_NOTE_6
 70
     0
 10
0.0
 20
0.0
 30
0.0
  3
SW_NOTE_6
  1

  0
MTEXT
  5
27F
330
27C
100
AcDbEntity
  8
G__TOTO
 62
     0
100
AcDbMText
 10
0.0
 20
9.5498435055
 30
0.0
 40
7.4083333333
 41
0.0
 71
     1
 72
     1
  1
DRILL
  7
SLDTEXTSTYLE2
 73
     1
 44
1.0
  0
MTEXT
  5
280
330
27C
100
AcDbEntity
  8
G__TOTO
 62
     0
100
AcDbMText
 10
-9.3290116638
 20
-0.3279341529
 30
0.0
 40
7.4083333333
 41
0.0
 71
     1
 72
     1
  1
TALADRO
  7
SLDTEXTSTYLE2
 73
     1
 44
1.0
  0
MTEXT
  5
281
330
27C
100
AcDbEntity
  8
G__TOTO
 62
     0
100
AcDbMText
 10
-2.7438271791
 20
-10.2057118113
 30
0.0
 40
7.4083333333
 41
0.0
 71
     1
 72
     1
  1
FORET
  7
SLDTEXTSTYLE2
 73
     1
 44
1.0
  0
ENDBLK
  5
27E
330
27C
100
AcDbEntity
  8
0
100
AcDbBlockEnd
  0
BLOCK
  5
284
330
283
100
AcDbEntity
  8
0
100
AcDbBlockBegin
  2
SW_NOTE_7
 70
     0
 10
0.0
 20
0.0
 30
0.0
  3
SW_NOTE_7
  1

  0
MTEXT
  5
286
330
283
100
AcDbEntity
  8
G__TOTO
 62
     0
100
AcDbMText
 10
0.0
 20
9.5498435055
 30
0.0
 40
7.4083333333
 41
0.0
 71
     1
 72
     1
  1
              DEEP
  7
SLDTEXTSTYLE2
 73
     1
 44
1.0
  0
MTEXT
  5
287
330
283
100
AcDbEntity
  8
G__TOTO
 62
     0
100
AcDbMText
 10
0.0
 20
-0.3279341529
 30
0.0
 40
7.4083333333
 41
0.0
 71
     1
 72
     1
  1
    [5/8]   PROFUNDAMENTE
  7
SLDTEXTSTYLE2
 73
     1
 44
1.0
  0
MTEXT
  5
289
330
283
100
AcDbEntity
  8
G__TOTO
 62
     0
100
AcDbMText
 10
0.0
 20
-10.2057118113
 30
0.0
 40
7.4083333333
 41
0.0
 71
     1
 72
     1
  1
x   16     PROFONDEMENT
  7
SLDTEXTSTYLE4
 73
     1
 44
1.0
  0
ENDBLK
  5
285
330
283
100
AcDbEntity
  8
0
100
AcDbBlockEnd
  0
BLOCK
  5
28C
330
28B
100
AcDbEntity
  8
0
100
AcDbBlockBegin
  2
SW_NOTE_8
 70
     0
 10
0.0
 20
0.0
 30
0.0
  3
SW_NOTE_8
  1

  0
MTEXT
  5
28E
330
28B
100
AcDbEntity
  8
G__TOTO
 62
     0
100
AcDbMText
 10
0.0
 20
9.5498435055
 30
0.0
 40
7.4083333333
 41
0.0
 71
     1
 72
     1
  1
FOR ANCHOR APPLICATION
  7
SLDTEXTSTYLE2
 73
     1
 44
1.0
  0
MTEXT
  5
28F
330
28B
100
AcDbEntity
  8
G__TOTO
 62
     0
100
AcDbMText
 10
-18.3836296201
 20
-0.3279341529
 30
0.0
 40
7.4083333333
 41
0.0
 71
     1
 72
     1
  1
PARA EL APLICACION DE LA ANCLA
  7
SLDTEXTSTYLE2
 73
     1
 44
1.0
  0
MTEXT
  5
290
330
28B
100
AcDbEntity
  8
G__TOTO
 62
     0
100
AcDbMText
 10
9.7611621022
 20
-10.2057118113
 30
0.0
 40
7.4083333333
 41
0.0
 71
     1
 72
     1
  1
POUR TIGE D'ANCRAGE
  7
SLDTEXTSTYLE2
 73
     1
 44
1.0
  0
ENDBLK
  5
28D
330
28B
100
AcDbEntity
  8
0
100
AcDbBlockEnd
  0
BLOCK
  5
294
330
293
100
AcDbEntity
  8
0
100
AcDbBlockBegin
  2
SW_CENTERMARKSYMBOL_0
 70
     0
 10
0.0
 20
0.0
 30
0.0
  3
SW_CENTERMARKSYMBOL_0
  1

  0
LINE
  5
296
330
293
100
AcDbEntity
  8
G__TOTO
 62
     0
100
AcDbLine
 10
0.0
 20
0.0
 30
0.0
 11
0.0
 21
2.5
 31
0.0
  0
LINE
  5
297
330
293
100
AcDbEntity
  8
G__TOTO
 62
     0
100
AcDbLine
 10
0.0
 20
0.0
 30
0.0
 11
-2.5
 21
0.0
 31
0.0
  0
LINE
  5
298
330
293
100
AcDbEntity
  8
G__TOTO
 62
     0
100
AcDbLine
 10
0.0
 20
0.0
 30
0.0
 11
0.0
 21
-2.5
 31
0.0
  0
LINE
  5
299
330
293
100
AcDbEntity
  8
G__TOTO
 62
     0
100
AcDbLine
 10
0.0
 20
0.0
 30
0.0
 11
2.5
 21
0.0
 31
0.0
  0
LINE
  5
29A
330
293
100
AcDbEntity
  8
G__TOTO
 62
     0
100
AcDbLine
 10
0.0
 20
5.0
 30
0.0
 11
0.0
 21
7.2625
 31
0.0
  0
LINE
  5
29B
330
293
100
AcDbEntity
  8
G__TOTO
 62
     0
100
AcDbLine
 10
-5.0
 20
0.0
 30
0.0
 11
-7.2625
 21
0.0
 31
0.0
  0
LINE
  5
29C
330
293
100
AcDbEntity
  8
G__TOTO
 62
     0
100
AcDbLine
 10
0.0
 20
-5.0
 30
0.0
 11
0.0
 21
-7.2625
 31
0.0
  0
LINE
  5
29D
330
293
100
AcDbEntity
  8
G__TOTO
 62
     0
100
AcDbLine
 10
5.0
 20
0.0
 30
0.0
 11
7.2625
 21
0.0
 31
0.0
  0
ENDBLK
  5
295
330
293
100
AcDbEntity
  8
0
100
AcDbBlockEnd
  0
BLOCK
  5
2A0
330
29F
100
AcDbEntity
  8
0
100
AcDbBlockBegin
  2
SW_CENTERMARKSYMBOL_1
 70
     0
 10
0.0
 20
0.0
 30
0.0
  3
SW_CENTERMARKSYMBOL_1
  1

  0
LINE
  5
2A2
330
29F
100
AcDbEntity
  8
G__TOTO
 62
     0
100
AcDbLine
 10
0.0
 20
0.0
 30
0.0
 11
0.0
 21
2.5
 31
0.0
  0
LINE
  5
2A3
330
29F
100
AcDbEntity
  8
G__TOTO
 62
     0
100
AcDbLine
 10
0.0
 20
0.0
 30
0.0
 11
-2.5
 21
0.0
 31
0.0
  0
LINE
  5
2A4
330
29F
100
AcDbEntity
  8
G__TOTO
 62
     0
100
AcDbLine
 10
0.0
 20
0.0
 30
0.0
 11
0.0
 21
-2.5
 31
0.0
  0
LINE
  5
2A5
330
29F
100
AcDbEntity
  8
G__TOTO
 62
     0
100
AcDbLine
 10
0.0
 20
0.0
 30
0.0
 11
2.5
 21
0.0
 31
0.0
  0
LINE
  5
2A6
330
29F
100
AcDbEntity
  8
G__TOTO
 62
     0
100
AcDbLine
 10
0.0
 20
5.0
 30
0.0
 11
0.0
 21
7.2625
 31
0.0
  0
LINE
  5
2A7
330
29F
100
AcDbEntity
  8
G__TOTO
 62
     0
100
AcDbLine
 10
-5.0
 20
0.0
 30
0.0
 11
-7.2625
 21
0.0
 31
0.0
  0
LINE
  5
2A8
330
29F
100
AcDbEntity
  8
G__TOTO
 62
     0
100
AcDbLine
 10
0.0
 20
-5.0
 30
0.0
 11
0.0
 21
-7.2625
 31
0.0
  0
LINE
  5
2A9
330
29F
100
AcDbEntity
  8
G__TOTO
 62
     0
100
AcDbLine
 10
5.0
 20
0.0
 30
0.0
 11
7.2625
 21
0.0
 31
0.0
  0
ENDBLK
  5
2A1
330
29F
100
AcDbEntity
  8
0
100
AcDbBlockEnd
  0
BLOCK
  5
2AC
330
2AB
100
AcDbEntity
  8
0
100
AcDbBlockBegin
  2
SW_CENTERMARKSYMBOL_2
 70
     0
 10
0.0
 20
0.0
 30
0.0
  3
SW_CENTERMARKSYMBOL_2
  1

  0
LINE
  5
2AE
330
2AB
100
AcDbEntity
  8
G__TOTO
 62
     0
100
AcDbLine
 10
0.0
 20
0.0
 30
0.0
 11
0.0
 21
2.5
 31
0.0
  0
LINE
  5
2AF
330
2AB
100
AcDbEntity
  8
G__TOTO
 62
     0
100
AcDbLine
 10
0.0
 20
0.0
 30
0.0
 11
-2.5
 21
0.0
 31
0.0
  0
LINE
  5
2B0
330
2AB
100
AcDbEntity
  8
G__TOTO
 62
     0
100
AcDbLine
 10
0.0
 20
0.0
 30
0.0
 11
0.0
 21
-2.5
 31
0.0
  0
LINE
  5
2B1
330
2AB
100
AcDbEntity
  8
G__TOTO
 62
     0
100
AcDbLine
 10
0.0
 20
0.0
 30
0.0
 11
2.5
 21
0.0
 31
0.0
  0
LINE
  5
2B2
330
2AB
100
AcDbEntity
  8
G__TOTO
 62
     0
100
AcDbLine
 10
0.0
 20
5.0
 30
0.0
 11
0.0
 21
7.2625
 31
0.0
  0
LINE
  5
2B3
330
2AB
100
AcDbEntity
  8
G__TOTO
 62
     0
100
AcDbLine
 10
-5.0
 20
0.0
 30
0.0
 11
-7.2625
 21
0.0
 31
0.0
  0
LINE
  5
2B4
330
2AB
100
AcDbEntity
  8
G__TOTO
 62
     0
100
AcDbLine
 10
0.0
 20
-5.0
 30
0.0
 11
0.0
 21
-7.2625
 31
0.0
  0
LINE
  5
2B5
330
2AB
100
AcDbEntity
  8
G__TOTO
 62
     0
100
AcDbLine
 10
5.0
 20
0.0
 30
0.0
 11
7.2625
 21
0.0
 31
0.0
  0
ENDBLK
  5
2AD
330
2AB
100
AcDbEntity
  8
0
100
AcDbBlockEnd
  0
BLOCK
  5
2B8
330
2B7
100
AcDbEntity
  8
0
100
AcDbBlockBegin
  2
SW_CENTERMARKSYMBOL_3
 70
     0
 10
0.0
 20
0.0
 30
0.0
  3
SW_CENTERMARKSYMBOL_3
  1

  0
LINE
  5
2BA
330
2B7
100
AcDbEntity
  8
G__TOTO
 62
     0
100
AcDbLine
 10
0.0
 20
0.0
 30
0.0
 11
0.0
 21
2.5
 31
0.0
  0
LINE
  5
2BB
330
2B7
100
AcDbEntity
  8
G__TOTO
 62
     0
100
AcDbLine
 10
0.0
 20
0.0
 30
0.0
 11
-2.5
 21
0.0
 31
0.0
  0
LINE
  5
2BC
330
2B7
100
AcDbEntity
  8
G__TOTO
 62
     0
100
AcDbLine
 10
0.0
 20
0.0
 30
0.0
 11
0.0
 21
-2.5
 31
0.0
  0
LINE
  5
2BD
330
2B7
100
AcDbEntity
  8
G__TOTO
 62
     0
100
AcDbLine
 10
0.0
 20
0.0
 30
0.0
 11
2.5
 21
0.0
 31
0.0
  0
LINE
  5
2BE
330
2B7
100
AcDbEntity
  8
G__TOTO
 62
     0
100
AcDbLine
 10
0.0
 20
2.5
 30
0.0
 11
0.0
 21
2.55
 31
0.0
  0
LINE
  5
2BF
330
2B7
100
AcDbEntity
  8
G__TOTO
 62
     0
100
AcDbLine
 10
-2.5
 20
0.0
 30
0.0
 11
-2.55
 21
0.0
 31
0.0
  0
LINE
  5
2C0
330
2B7
100
AcDbEntity
  8
G__TOTO
 62
     0
100
AcDbLine
 10
0.0
 20
-2.5
 30
0.0
 11
0.0
 21
-2.55
 31
0.0
  0
LINE
  5
2C1
330
2B7
100
AcDbEntity
  8
G__TOTO
 62
     0
100
AcDbLine
 10
2.5
 20
0.0
 30
0.0
 11
2.55
 21
0.0
 31
0.0
  0
ENDBLK
  5
2B9
330
2B7
100
AcDbEntity
  8
0
100
AcDbBlockEnd
  0
ENDSEC
  0
SECTION
  2
ENTITIES
  0
INSERT
  5
CE
330
1F
100
AcDbEntity
  8
0
  6
Continuous
 62
     7
100
AcDbBlockReference
  2
Block1
 10
849.2154444769
 20
105.3057975415
 30
0.0
 41
0.1
 42
0.1
 43
0.1
  0
INSERT
  5
D5
330
1F
100
AcDbEntity
  8
SLD-0
 62
   179
100
AcDbBlockReference
  2
SW_NOTE_1
 10
775.3500226743
 20
113.9352655445
 30
0.0
  0
ARC
  5
D6
330
1F
100
AcDbEntity
  8
0
  6
Continuous
 62
     7
370
    15
100
AcDbCircle
 10
258.7033068477
 20
235.5257618151
 30
0.0
 40
12.70000000000016
100
AcDbArc
 50
180.0
 51
270.0
  0
LINE
  5
D7
330
1F
100
AcDbEntity
  8
0
  6
Continuous
 62
     7
370
    15
100
AcDbLine
 10
258.7033068477
 20
222.8257618151
 30
0.0
 11
649.8033068477
 21
222.8257618151
 31
0.0
  0
ARC
  5
D8
330
1F
100
AcDbEntity
  8
0
  6
Continuous
 62
     7
370
    15
100
AcDbCircle
 10
649.8033068477
 20
235.5257618151
 30
0.0
 40
12.70000000000016
100
AcDbArc
 50
270.0
 51
0.0
  0
LINE
  5
D9
330
1F
100
AcDbEntity
  8
0
  6
Continuous
 62
     7
370
    15
100
AcDbLine
 10
662.5033068477
 20
575.6257618151
 30
0.0
 11
662.5033068477
 21
235.5257618151
 31
0.0
  0
ARC
  5
DA
330
1F
100
AcDbEntity
  8
0
  6
Continuous
 62
     7
370
    15
100
AcDbCircle
 10
649.8033068477
 20
575.6257618151
 30
0.0
 40
12.70000000000016
100
AcDbArc
 50
0.0
 51
90.0
  0
LINE
  5
DB
330
1F
100
AcDbEntity
  8
0
  6
Continuous
 62
     7
370
    15
100
AcDbLine
 10
258.7033068477
 20
588.3257618151
 30
0.0
 11
649.8033068477
 21
588.3257618151
 31
0.0
  0
ARC
  5
DC
330
1F
100
AcDbEntity
  8
0
  6
Continuous
 62
     7
370
    15
100
AcDbCircle
 10
258.7033068477
 20
575.6257618151
 30
0.0
 40
12.70000000000016
100
AcDbArc
 50
90.0
 51
180.0
  0
LINE
  5
DD
330
1F
100
AcDbEntity
  8
0
  6
Continuous
 62
     7
370
    15
100
AcDbLine
 10
246.0033068477
 20
575.6257618151
 30
0.0
 11
246.0033068477
 21
235.5257618151
 31
0.0
  0
CIRCLE
  5
DE
330
1F
100
AcDbEntity
  8
0
  6
HIDDEN
 62
     7
370
     0
100
AcDbCircle
 10
301.8533068477
 20
176.9757618151
 30
0.0
 40
4.762499999999989
  0
CIRCLE
  5
DF
330
1F
100
AcDbEntity
  8
0
  6
HIDDEN
 62
     7
370
     0
100
AcDbCircle
 10
301.8533068477
 20
634.1757618151
 30
0.0
 40
4.762499999999932
  0
CIRCLE
  5
E0
330
1F
100
AcDbEntity
  8
0
  6
HIDDEN
 62
     7
370
     0
100
AcDbCircle
 10
606.6533068477
 20
634.1757618151
 30
0.0
 40
4.762499999999932
  0
CIRCLE
  5
E1
330
1F
100
AcDbEntity
  8
0
  6
HIDDEN
 62
     7
370
     0
100
AcDbCircle
 10
606.6533068477
 20
176.9757618151
 30
0.0
 40
4.762499999999989
  0
CIRCLE
  5
E2
330
1F
100
AcDbEntity
  8
0
  6
HIDDEN
 62
     7
370
     0
100
AcDbCircle
 10
606.6533068477
 20
176.9757618151
 30
0.0
 40
4.762499999999989
  0
CIRCLE
  5
E3
330
1F
100
AcDbEntity
  8
0
  6
HIDDEN
 62
     7
370
     0
100
AcDbCircle
 10
606.6533068477
 20
634.1757618151
 30
0.0
 40
4.762499999999932
  0
CIRCLE
  5
E4
330
1F
100
AcDbEntity
  8
0
  6
HIDDEN
 62
     7
370
     0
100
AcDbCircle
 10
301.8533068477
 20
176.9757618151
 30
0.0
 40
4.762499999999989
  0
CIRCLE
  5
E5
330
1F
100
AcDbEntity
  8
0
  6
HIDDEN
 62
     7
370
     0
100
AcDbCircle
 10
301.8533068477
 20
634.1757618151
 30
0.0
 40
4.762499999999932
  0
LINE
  5
E6
330
1F
100
AcDbEntity
  8
0
  6
Continuous
 62
     7
370
     0
100
AcDbLine
 10
9.7533068477
 20
668.4767458553
 30
0.0
 11
898.7533068477
 21
668.4767458553
 31
0.0
  0
LINE
  5
E7
330
1F
100
AcDbEntity
  8
0
  6
Continuous
 62
     7
370
     0
100
AcDbLine
 10
9.7533068477
 20
668.4767458553
 30
0.0
 11
9.7533068477
 21
84.2767458553
 31
0.0
  0
LINE
  5
E8
330
1F
100
AcDbEntity
  8
0
  6
Continuous
 62
     7
370
     0
100
AcDbLine
 10
9.7533068477
 20
84.2767458553
 30
0.0
 11
898.7533068477
 21
84.2767458553
 31
0.0
  0
LINE
  5
E9
330
1F
100
AcDbEntity
  8
0
  6
Continuous
 62
     7
370
     0
100
AcDbLine
 10
898.7533068477
 20
668.4767458553
 30
0.0
 11
898.7533068477
 21
84.2767458553
 31
0.0
  0
LINE
  5
EA
330
1F
100
AcDbEntity
  8
FORMAT
100
AcDbLine
 10
790.4288832478
 20
154.3013285706
 30
0.0
 11
792.2488779583
 21
154.3013285706
 31
0.0
  0
LINE
  5
EB
330
1F
100
AcDbEntity
  8
FORMAT
100
AcDbLine
 10
796.3193156093
 20
150.2300340755
 30
0.0
 11
796.3190848825
 21
149.133850908
 31
0.0
  0
LINE
  5
EC
330
1F
100
AcDbEntity
  8
FORMAT
100
AcDbLine
 10
796.3190848825
 20
149.133850908
 30
0.0
 11
798.730974162
 21
149.133850908
 31
0.0
  0
LINE
  5
ED
330
1F
100
AcDbEntity
  8
FORMAT
100
AcDbLine
 10
798.730974162
 20
149.133850908
 30
0.0
 11
798.7325694824
 21
156.7132177967
 31
0.0
  0
LINE
  5
EE
330
1F
100
AcDbEntity
  8
FORMAT
100
AcDbLine
 10
798.7325694824
 20
156.7132177967
 30
0.0
 11
777.2329251078
 21
156.7132177967
 31
0.0
  0
LINE
  5
EF
330
1F
100
AcDbEntity
  8
FORMAT
100
AcDbLine
 10
777.2329251078
 20
156.7132177967
 30
0.0
 11
777.2327680826
 21
149.133850908
 31
0.0
  0
LINE
  5
F0
330
1F
100
AcDbEntity
  8
FORMAT
100
AcDbLine
 10
777.2327680826
 20
149.133850908
 30
0.0
 11
779.6441776202
 21
149.133850908
 31
0.0
  0
LINE
  5
F1
330
1F
100
AcDbEntity
  8
FORMAT
100
AcDbLine
 10
779.6441776202
 20
149.133850908
 30
0.0
 11
779.6444087077
 21
150.2317475832
 31
0.0
  0
LINE
  5
F2
330
1F
100
AcDbEntity
  8
FORMAT
100
AcDbLine
 10
783.7148463587
 20
154.3013285706
 30
0.0
 11
785.5366645752
 21
154.3013285706
 31
0.0
  0
LINE
  5
F3
330
1F
100
AcDbEntity
  8
FORMAT
100
AcDbLine
 10
785.5366645752
 20
154.3013285706
 30
0.0
 11
785.5336938881
 21
140.6579382169
 31
0.0
  0
LINE
  5
F4
330
1F
100
AcDbEntity
  8
FORMAT
100
AcDbLine
 10
784.0175208086
 20
139.1420952303
 30
0.0
 11
781.4334517872
 21
139.1420952303
 31
0.0
  0
LINE
  5
F5
330
1F
100
AcDbEntity
  8
FORMAT
100
AcDbLine
 10
781.4334517872
 20
139.1420952303
 30
0.0
 11
781.4329266269
 21
136.7302060042
 31
0.0
  0
LINE
  5
F6
330
1F
100
AcDbEntity
  8
FORMAT
100
AcDbLine
 10
781.4329266269
 20
136.7302060042
 30
0.0
 11
794.5249693873
 21
136.7302060042
 31
0.0
  0
LINE
  5
F7
330
1F
100
AcDbEntity
  8
FORMAT
100
AcDbLine
 10
794.5249693873
 20
136.7302060042
 30
0.0
 11
794.5254945477
 21
139.1420952303
 31
0.0
  0
LINE
  5
F8
330
1F
100
AcDbEntity
  8
FORMAT
100
AcDbLine
 10
794.5254945477
 20
139.1420952303
 30
0.0
 11
791.942085784
 21
139.1420952303
 31
0.0
  0
LINE
  5
F9
330
1F
100
AcDbEntity
  8
FORMAT
100
AcDbLine
 10
790.4259127045
 20
140.6585984745
 30
0.0
 11
790.4288832478
 21
154.3013285706
 31
0.0
  0
LINE
  5
FA
330
1F
100
AcDbEntity
  8
FORMAT
100
AcDbLine
 10
841.979352316
 20
154.3013285706
 30
0.0
 11
843.7993470265
 21
154.3013285706
 31
0.0
  0
LINE
  5
FB
330
1F
100
AcDbEntity
  8
FORMAT
100
AcDbLine
 10
847.8697846775
 20
150.2300340755
 30
0.0
 11
847.8695539507
 21
149.133850908
 31
0.0
  0
LINE
  5
FC
330
1F
100
AcDbEntity
  8
FORMAT
100
AcDbLine
 10
847.8695539507
 20
149.133850908
 30
0.0
 11
850.2814432302
 21
149.133850908
 31
0.0
  0
LINE
  5
FD
330
1F
100
AcDbEntity
  8
FORMAT
100
AcDbLine
 10
850.2814432302
 20
149.133850908
 30
0.0
 11
850.2830385506
 21
156.7132177967
 31
0.0
  0
LINE
  5
FE
330
1F
100
AcDbEntity
  8
FORMAT
100
AcDbLine
 10
850.2830385506
 20
156.7132177967
 30
0.0
 11
828.783394176
 21
156.7132177967
 31
0.0
  0
LINE
  5
FF
330
1F
100
AcDbEntity
  8
FORMAT
100
AcDbLine
 10
828.783394176
 20
156.7132177967
 30
0.0
 11
828.7832371508
 21
149.133850908
 31
0.0
  0
LINE
  5
100
330
1F
100
AcDbEntity
  8
FORMAT
100
AcDbLine
 10
828.7832371508
 20
149.133850908
 30
0.0
 11
831.1946466884
 21
149.133850908
 31
0.0
  0
LINE
  5
101
330
1F
100
AcDbEntity
  8
FORMAT
100
AcDbLine
 10
831.1946466884
 20
149.133850908
 30
0.0
 11
831.1948777759
 21
150.2317475832
 31
0.0
  0
LINE
  5
102
330
1F
100
AcDbEntity
  8
FORMAT
100
AcDbLine
 10
835.2653154269
 20
154.3013285706
 30
0.0
 11
837.0871336434
 21
154.3013285706
 31
0.0
  0
LINE
  5
103
330
1F
100
AcDbEntity
  8
FORMAT
100
AcDbLine
 10
837.0871336434
 20
154.3013285706
 30
0.0
 11
837.0841629563
 21
140.6579382169
 31
0.0
  0
LINE
  5
104
330
1F
100
AcDbEntity
  8
FORMAT
100
AcDbLine
 10
835.5679898768
 20
139.1420952303
 30
0.0
 11
832.9839208554
 21
139.1420952303
 31
0.0
  0
LINE
  5
105
330
1F
100
AcDbEntity
  8
FORMAT
100
AcDbLine
 10
832.9839208554
 20
139.1420952303
 30
0.0
 11
832.9833956951
 21
136.7302060042
 31
0.0
  0
LINE
  5
106
330
1F
100
AcDbEntity
  8
FORMAT
100
AcDbLine
 10
832.9833956951
 20
136.7302060042
 30
0.0
 11
846.0754384555
 21
136.7302060042
 31
0.0
  0
LINE
  5
107
330
1F
100
AcDbEntity
  8
FORMAT
100
AcDbLine
 10
846.0754384555
 20
136.7302060042
 30
0.0
 11
846.0759636159
 21
139.1420952303
 31
0.0
  0
LINE
  5
108
330
1F
100
AcDbEntity
  8
FORMAT
100
AcDbLine
 10
846.0759636159
 20
139.1420952303
 30
0.0
 11
843.4925548522
 21
139.1420952303
 31
0.0
  0
LINE
  5
109
330
1F
100
AcDbEntity
  8
FORMAT
100
AcDbLine
 10
841.9763817727
 20
140.6585984745
 30
0.0
 11
841.979352316
 21
154.3013285706
 31
0.0
  0
LINE
  5
10A
330
1F
100
AcDbEntity
  8
FORMAT
100
AcDbLine
 10
880.124962947
 20
139.8209281189
 30
0.0
 11
880.1411259569
 21
139.8207066785
 31
0.0
  0
LINE
  5
10B
330
1F
100
AcDbEntity
  8
FORMAT
100
AcDbLine
 10
880.1411259569
 20
139.8207066785
 30
0.0
 11
880.1743384501
 21
139.8195994768
 31
0.0
  0
LINE
  5
10C
330
1F
100
AcDbEntity
  8
FORMAT
100
AcDbLine
 10
880.1743384501
 20
139.8195994768
 30
0.0
 11
880.2064437415
 21
139.8171643449
 31
0.0
  0
LINE
  5
10D
330
1F
100
AcDbEntity
  8
FORMAT
100
AcDbLine
 10
880.2064437415
 20
139.8171643449
 30
0.0
 11
880.2378839998
 21
139.8136212992
 31
0.0
  0
LINE
  5
10E
330
1F
100
AcDbEntity
  8
FORMAT
100
AcDbLine
 10
880.2378839998
 20
139.8136212992
 30
0.0
 11
880.2682177684
 21
139.8087503234
 31
0.0
  0
LINE
  5
10F
330
1F
100
AcDbEntity
  8
FORMAT
100
AcDbLine
 10
880.2682177684
 20
139.8087503234
 30
0.0
 11
880.2978879279
 21
139.8025507055
 31
0.0
  0
LINE
  5
110
330
1F
100
AcDbEntity
  8
FORMAT
100
AcDbLine
 10
880.2978879279
 20
139.8025507055
 30
0.0
 11
880.326671614
 21
139.7954653261
 31
0.0
  0
LINE
  5
111
330
1F
100
AcDbEntity
  8
FORMAT
100
AcDbLine
 10
880.326671614
 20
139.7954653261
 30
0.0
 11
880.3543480983
 21
139.7868298643
 31
0.0
  0
LINE
  5
112
330
1F
100
AcDbEntity
  8
FORMAT
100
AcDbLine
 10
880.3543480983
 20
139.7868298643
 30
0.0
 11
880.3813609735
 21
139.7770879127
 31
0.0
  0
LINE
  5
113
330
1F
100
AcDbEntity
  8
FORMAT
100
AcDbLine
 10
880.3813609735
 20
139.7770879127
 30
0.0
 11
880.4074880874
 21
139.7662387593
 31
0.0
  0
LINE
  5
114
330
1F
100
AcDbEntity
  8
FORMAT
100
AcDbLine
 10
880.4074880874
 20
139.7662387593
 30
0.0
 11
880.4327294398
 21
139.7540609638
 31
0.0
  0
LINE
  5
115
330
1F
100
AcDbEntity
  8
FORMAT
100
AcDbLine
 10
880.4327294398
 20
139.7540609638
 30
0.0
 11
880.4570850308
 21
139.7407759666
 31
0.0
  0
LINE
  5
116
330
1F
100
AcDbEntity
  8
FORMAT
100
AcDbLine
 10
880.4570850308
 20
139.7407759666
 30
0.0
 11
880.48033342
 21
139.7261623272
 31
0.0
  0
LINE
  5
117
330
1F
100
AcDbEntity
  8
FORMAT
100
AcDbLine
 10
880.48033342
 20
139.7261623272
 30
0.0
 11
880.5029174882
 21
139.710442198
 31
0.0
  0
LINE
  5
118
330
1F
100
AcDbEntity
  8
FORMAT
100
AcDbLine
 10
880.5029174882
 20
139.710442198
 30
0.0
 11
880.5246165069
 21
139.6933934267
 31
0.0
  0
LINE
  5
119
330
1F
100
AcDbEntity
  8
FORMAT
100
AcDbLine
 10
880.5246165069
 20
139.6933934267
 30
0.0
 11
880.54277248
 21
139.6770082645
 31
0.0
  0
LINE
  5
11A
330
1F
100
AcDbEntity
  8
FORMAT
100
AcDbLine
 10
880.54277248
 20
139.6770082645
 30
0.0
 11
880.5629207042
 21
139.6566385999
 31
0.0
  0
LINE
  5
11B
330
1F
100
AcDbEntity
  8
FORMAT
100
AcDbLine
 10
880.5629207042
 20
139.6566385999
 30
0.0
 11
880.5812981176
 21
139.6351610215
 31
0.0
  0
LINE
  5
11C
330
1F
100
AcDbEntity
  8
FORMAT
100
AcDbLine
 10
880.5812981176
 20
139.6351610215
 30
0.0
 11
880.5981261606
 21
139.6127983937
 31
0.0
  0
LINE
  5
11D
330
1F
100
AcDbEntity
  8
FORMAT
100
AcDbLine
 10
880.5981261606
 20
139.6127983937
 30
0.0
 11
880.613403409
 21
139.5893285641
 31
0.0
  0
LINE
  5
11E
330
1F
100
AcDbEntity
  8
FORMAT
100
AcDbLine
 10
880.613403409
 20
139.5893285641
 30
0.0
 11
880.627131287
 21
139.5649729731
 31
0.0
  0
LINE
  5
11F
330
1F
100
AcDbEntity
  8
FORMAT
100
AcDbLine
 10
880.627131287
 20
139.5649729731
 30
0.0
 11
880.6390876422
 21
139.5395101803
 31
0.0
  0
LINE
  5
120
330
1F
100
AcDbEntity
  8
FORMAT
100
AcDbLine
 10
880.6390876422
 20
139.5395101803
 30
0.0
 11
880.6494939148
 21
139.5129401858
 31
0.0
  0
LINE
  5
121
330
1F
100
AcDbEntity
  8
FORMAT
100
AcDbLine
 10
880.6494939148
 20
139.5129401858
 30
0.0
 11
880.658350817
 21
139.4854851418
 31
0.0
  0
LINE
  5
122
330
1F
100
AcDbEntity
  8
FORMAT
100
AcDbLine
 10
880.658350817
 20
139.4854851418
 30
0.0
 11
880.6654361964
 21
139.4571436244
 31
0.0
  0
LINE
  5
123
330
1F
100
AcDbEntity
  8
FORMAT
100
AcDbLine
 10
880.6654361964
 20
139.4571436244
 30
0.0
 11
880.6711929336
 21
139.4274741769
 31
0.0
  0
LINE
  5
124
330
1F
100
AcDbEntity
  8
FORMAT
100
AcDbLine
 10
880.6711929336
 20
139.4274741769
 30
0.0
 11
880.6751781479
 21
139.3971404084
 31
0.0
  0
LINE
  5
125
330
1F
100
AcDbEntity
  8
FORMAT
100
AcDbLine
 10
880.6751781479
 20
139.3971404084
 30
0.0
 11
880.6776139919
 21
139.3654779977
 31
0.0
  0
LINE
  5
126
330
1F
100
AcDbEntity
  8
FORMAT
100
AcDbLine
 10
880.6776139919
 20
139.3654779977
 30
0.0
 11
880.6782783129
 21
139.3329305376
 31
0.0
  0
LINE
  5
127
330
1F
100
AcDbEntity
  8
FORMAT
100
AcDbLine
 10
880.6782783129
 20
139.3329305376
 30
0.0
 11
880.6780568726
 21
139.3092385556
 31
0.0
  0
LINE
  5
128
330
1F
100
AcDbEntity
  8
FORMAT
100
AcDbLine
 10
880.6780568726
 20
139.3092385556
 30
0.0
 11
880.6771711111
 21
139.275141013
 31
0.0
  0
LINE
  5
129
330
1F
100
AcDbEntity
  8
FORMAT
100
AcDbLine
 10
880.6771711111
 20
139.275141013
 30
0.0
 11
880.675178148
 21
139.2421499602
 31
0.0
  0
LINE
  5
12A
330
1F
100
AcDbEntity
  8
FORMAT
100
AcDbLine
 10
880.675178148
 20
139.2421499602
 30
0.0
 11
880.672078695
 21
139.2102668212
 31
0.0
  0
LINE
  5
12B
330
1F
100
AcDbEntity
  8
FORMAT
100
AcDbLine
 10
880.672078695
 20
139.2102668212
 30
0.0
 11
880.668314209
 21
139.1792687316
 31
0.0
  0
LINE
  5
12C
330
1F
100
AcDbEntity
  8
FORMAT
100
AcDbLine
 10
880.668314209
 20
139.1792687316
 30
0.0
 11
880.6636646735
 21
139.1491564034
 31
0.0
  0
LINE
  5
12D
330
1F
100
AcDbEntity
  8
FORMAT
100
AcDbLine
 10
880.6636646735
 20
139.1491564034
 30
0.0
 11
880.6579079363
 21
139.1203720052
 31
0.0
  0
LINE
  5
12E
330
1F
100
AcDbEntity
  8
FORMAT
100
AcDbLine
 10
880.6579079363
 20
139.1203720052
 30
0.0
 11
880.651486878
 21
139.0922526402
 31
0.0
  0
LINE
  5
12F
330
1F
100
AcDbEntity
  8
FORMAT
100
AcDbLine
 10
880.651486878
 20
139.0922526402
 30
0.0
 11
880.643958618
 21
139.0654612053
 31
0.0
  0
LINE
  5
130
330
1F
100
AcDbEntity
  8
FORMAT
100
AcDbLine
 10
880.643958618
 20
139.0654612053
 30
0.0
 11
880.6355453085
 21
139.0395555319
 31
0.0
  0
LINE
  5
131
330
1F
100
AcDbEntity
  8
FORMAT
100
AcDbLine
 10
880.6355453085
 20
139.0395555319
 30
0.0
 11
880.6262455256
 21
139.0145356198
 31
0.0
  0
LINE
  5
132
330
1F
100
AcDbEntity
  8
FORMAT
100
AcDbLine
 10
880.6262455256
 20
139.0145356198
 30
0.0
 11
880.6160606933
 21
138.9908443499
 31
0.0
  0
LINE
  5
133
330
1F
100
AcDbEntity
  8
FORMAT
100
AcDbLine
 10
880.6160606933
 20
138.9908443499
 30
0.0
 11
880.6049900996
 21
138.967817401
 31
0.0
  0
LINE
  5
134
330
1F
100
AcDbEntity
  8
FORMAT
100
AcDbLine
 10
880.6049900996
 20
138.967817401
 30
0.0
 11
880.5928115921
 21
138.9461190943
 31
0.0
  0
LINE
  5
135
330
1F
100
AcDbEntity
  8
FORMAT
100
AcDbLine
 10
880.5928115921
 20
138.9461190943
 30
0.0
 11
880.5799701875
 21
138.9253058369
 31
0.0
  0
LINE
  5
136
330
1F
100
AcDbEntity
  8
FORMAT
100
AcDbLine
 10
880.5799701875
 20
138.9253058369
 30
0.0
 11
880.5660208692
 21
138.905378341
 31
0.0
  0
LINE
  5
137
330
1F
100
AcDbEntity
  8
FORMAT
100
AcDbLine
 10
880.5660208692
 20
138.905378341
 30
0.0
 11
880.5514072298
 21
138.8865580469
 31
0.0
  0
LINE
  5
138
330
1F
100
AcDbEntity
  8
FORMAT
100
AcDbLine
 10
880.5514072298
 20
138.8865580469
 30
0.0
 11
880.5356871006
 21
138.8688449545
 31
0.0
  0
LINE
  5
139
330
1F
100
AcDbEntity
  8
FORMAT
100
AcDbLine
 10
880.5356871006
 20
138.8688449545
 30
0.0
 11
880.5190812101
 21
138.852239064
 31
0.0
  0
LINE
  5
13A
330
1F
100
AcDbEntity
  8
FORMAT
100
AcDbLine
 10
880.5190812101
 20
138.852239064
 30
0.0
 11
880.501588846
 21
138.8362974945
 31
0.0
  0
LINE
  5
13B
330
1F
100
AcDbEntity
  8
FORMAT
100
AcDbLine
 10
880.501588846
 20
138.8362974945
 30
0.0
 11
880.4832114326
 21
138.821683855
 31
0.0
  0
LINE
  5
13C
330
1F
100
AcDbEntity
  8
FORMAT
100
AcDbLine
 10
880.4832114326
 20
138.821683855
 30
0.0
 11
880.4637275294
 21
138.8079559771
 31
0.0
  0
LINE
  5
13D
330
1F
100
AcDbEntity
  8
FORMAT
100
AcDbLine
 10
880.4637275294
 20
138.8079559771
 30
0.0
 11
880.4435785932
 21
138.7953353009
 31
0.0
  0
LINE
  5
13E
330
1F
100
AcDbEntity
  8
FORMAT
100
AcDbLine
 10
880.4435785932
 20
138.7953353009
 30
0.0
 11
880.4223224551
 21
138.7836003861
 31
0.0
  0
LINE
  5
13F
330
1F
100
AcDbEntity
  8
FORMAT
100
AcDbLine
 10
880.4223224551
 20
138.7836003861
 30
0.0
 11
880.400402708
 21
138.7729726731
 31
0.0
  0
LINE
  5
140
330
1F
100
AcDbEntity
  8
FORMAT
100
AcDbLine
 10
880.400402708
 20
138.7729726731
 30
0.0
 11
880.3773757592
 21
138.7632300095
 31
0.0
  0
LINE
  5
141
330
1F
100
AcDbEntity
  8
FORMAT
100
AcDbLine
 10
880.3773757592
 20
138.7632300095
 30
0.0
 11
880.3534630489
 21
138.7545952596
 31
0.0
  0
LINE
  5
142
330
1F
100
AcDbEntity
  8
FORMAT
100
AcDbLine
 10
880.3534630489
 20
138.7545952596
 30
0.0
 11
880.3286645772
 21
138.7470669996
 31
0.0
  0
LINE
  5
143
330
1F
100
AcDbEntity
  8
FORMAT
100
AcDbLine
 10
880.3286645772
 20
138.7470669996
 30
0.0
 11
880.3029803441
 21
138.7404245009
 31
0.0
  0
LINE
  5
144
330
1F
100
AcDbEntity
  8
FORMAT
100
AcDbLine
 10
880.3029803441
 20
138.7404245009
 30
0.0
 11
880.2761889092
 21
138.7348892041
 31
0.0
  0
LINE
  5
145
330
1F
100
AcDbEntity
  8
FORMAT
100
AcDbLine
 10
880.2761889092
 20
138.7348892041
 30
0.0
 11
880.2487338652
 21
138.7302396686
 31
0.0
  0
LINE
  5
146
330
1F
100
AcDbEntity
  8
FORMAT
100
AcDbLine
 10
880.2487338652
 20
138.7302396686
 30
0.0
 11
880.2201709075
 21
138.726696623
 31
0.0
  0
LINE
  5
147
330
1F
100
AcDbEntity
  8
FORMAT
100
AcDbLine
 10
880.2201709075
 20
138.726696623
 30
0.0
 11
880.1909443407
 21
138.7242614911
 31
0.0
  0
LINE
  5
148
330
1F
100
AcDbEntity
  8
FORMAT
100
AcDbLine
 10
880.1909443407
 20
138.7242614911
 30
0.0
 11
880.1606105721
 21
138.7227114086
 31
0.0
  0
LINE
  5
149
330
1F
100
AcDbEntity
  8
FORMAT
100
AcDbLine
 10
880.1606105721
 20
138.7227114086
 30
0.0
 11
880.1293910421
 21
138.7220470875
 31
0.0
  0
LINE
  5
14A
330
1F
100
AcDbEntity
  8
FORMAT
100
AcDbLine
 10
880.1293910421
 20
138.7220470875
 30
0.0
 11
879.0535376717
 21
138.7220470875
 31
0.0
  0
LINE
  5
14B
330
1F
100
AcDbEntity
  8
FORMAT
100
AcDbLine
 10
879.0535376717
 20
138.7220470875
 30
0.0
 11
879.0535376717
 21
139.8209281189
 31
0.0
  0
LINE
  5
14C
330
1F
100
AcDbEntity
  8
FORMAT
100
AcDbLine
 10
879.0535376717
 20
139.8209281189
 30
0.0
 11
880.124962947
 21
139.8209281189
 31
0.0
  0
LINE
  5
14D
330
1F
100
AcDbEntity
  8
FORMAT
100
AcDbLine
 10
880.7681724168
 20
138.4964257102
 30
0.0
 11
880.7387244097
 21
138.5183454573
 31
0.0
  0
LINE
  5
14E
330
1F
100
AcDbEntity
  8
FORMAT
100
AcDbLine
 10
880.7387244097
 20
138.5183454573
 30
0.0
 11
880.7072834393
 21
138.5409302375
 31
0.0
  0
LINE
  5
14F
330
1F
100
AcDbEntity
  8
FORMAT
100
AcDbLine
 10
880.7072834393
 20
138.5409302375
 30
0.0
 11
880.6740709462
 21
138.5639571863
 31
0.0
  0
LINE
  5
150
330
1F
100
AcDbEntity
  8
FORMAT
100
AcDbLine
 10
880.6740709462
 20
138.5639571863
 30
0.0
 11
880.6935555614
 21
138.578127945
 31
0.0
  0
LINE
  5
151
330
1F
100
AcDbEntity
  8
FORMAT
100
AcDbLine
 10
880.6935555614
 20
138.578127945
 30
0.0
 11
880.7205684367
 21
138.59871905
 31
0.0
  0
LINE
  5
152
330
1F
100
AcDbEntity
  8
FORMAT
100
AcDbLine
 10
880.7205684367
 20
138.59871905
 30
0.0
 11
880.7464733981
 21
138.6193108669
 31
0.0
  0
LINE
  5
153
330
1F
100
AcDbEntity
  8
FORMAT
100
AcDbLine
 10
880.7464733981
 20
138.6193108669
 30
0.0
 11
880.7714933102
 21
138.6403455646
 31
0.0
  0
LINE
  5
154
330
1F
100
AcDbEntity
  8
FORMAT
100
AcDbLine
 10
880.7714933102
 20
138.6403455646
 30
0.0
 11
880.7956274608
 21
138.6616009906
 31
0.0
  0
LINE
  5
155
330
1F
100
AcDbEntity
  8
FORMAT
100
AcDbLine
 10
880.7956274608
 20
138.6616009906
 30
0.0
 11
880.8188765621
 21
138.683078569
 31
0.0
  0
LINE
  5
156
330
1F
100
AcDbEntity
  8
FORMAT
100
AcDbLine
 10
880.8188765621
 20
138.683078569
 30
0.0
 11
880.8410177495
 21
138.7047768758
 31
0.0
  0
LINE
  5
157
330
1F
100
AcDbEntity
  8
FORMAT
100
AcDbLine
 10
880.8410177495
 20
138.7047768758
 30
0.0
 11
880.8622738875
 21
138.7269180632
 31
0.0
  0
LINE
  5
158
330
1F
100
AcDbEntity
  8
FORMAT
100
AcDbLine
 10
880.8622738875
 20
138.7269180632
 30
0.0
 11
880.8826435521
 21
138.749281403
 31
0.0
  0
LINE
  5
159
330
1F
100
AcDbEntity
  8
FORMAT
100
AcDbLine
 10
880.8826435521
 20
138.749281403
 30
0.0
 11
880.9021281673
 21
138.7718654712
 31
0.0
  0
LINE
  5
15A
330
1F
100
AcDbEntity
  8
FORMAT
100
AcDbLine
 10
880.9021281673
 20
138.7718654712
 30
0.0
 11
880.9205055808
 21
138.7946709797
 31
0.0
  0
LINE
  5
15B
330
1F
100
AcDbEntity
  8
FORMAT
100
AcDbLine
 10
880.9205055808
 20
138.7946709797
 30
0.0
 11
880.9379972328
 21
138.8179200809
 31
0.0
  0
LINE
  5
15C
330
1F
100
AcDbEntity
  8
FORMAT
100
AcDbLine
 10
880.9379972328
 20
138.8179200809
 30
0.0
 11
880.9546031233
 21
138.8411684702
 31
0.0
  0
LINE
  5
15D
330
1F
100
AcDbEntity
  8
FORMAT
100
AcDbLine
 10
880.9546031233
 20
138.8411684702
 30
0.0
 11
880.9701025242
 21
138.8648597401
 31
0.0
  0
LINE
  5
15E
330
1F
100
AcDbEntity
  8
FORMAT
100
AcDbLine
 10
880.9701025242
 20
138.8648597401
 30
0.0
 11
880.9847161636
 21
138.8887724504
 31
0.0
  0
LINE
  5
15F
330
1F
100
AcDbEntity
  8
FORMAT
100
AcDbLine
 10
880.9847161636
 20
138.8887724504
 30
0.0
 11
880.9984433295
 21
138.9131280414
 31
0.0
  0
LINE
  5
160
330
1F
100
AcDbEntity
  8
FORMAT
100
AcDbLine
 10
880.9984433295
 20
138.9131280414
 30
0.0
 11
881.0112854461
 21
138.9374836324
 31
0.0
  0
LINE
  5
161
330
1F
100
AcDbEntity
  8
FORMAT
100
AcDbLine
 10
881.0112854461
 20
138.9374836324
 30
0.0
 11
881.0230203609
 21
138.9622821041
 31
0.0
  0
LINE
  5
162
330
1F
100
AcDbEntity
  8
FORMAT
100
AcDbLine
 10
881.0230203609
 20
138.9622821041
 30
0.0
 11
881.0338702263
 21
138.9873020161
 31
0.0
  0
LINE
  5
163
330
1F
100
AcDbEntity
  8
FORMAT
100
AcDbLine
 10
881.0338702263
 20
138.9873020161
 30
0.0
 11
881.0438336182
 21
139.0125433685
 31
0.0
  0
LINE
  5
164
330
1F
100
AcDbEntity
  8
FORMAT
100
AcDbLine
 10
881.0438336182
 20
139.0125433685
 30
0.0
 11
881.0529112487
 21
139.0382276017
 31
0.0
  0
LINE
  5
165
330
1F
100
AcDbEntity
  8
FORMAT
100
AcDbLine
 10
881.0529112487
 20
139.0382276017
 30
0.0
 11
881.0608823895
 21
139.0639111228
 31
0.0
  0
LINE
  5
166
330
1F
100
AcDbEntity
  8
FORMAT
100
AcDbLine
 10
881.0608823895
 20
139.0639111228
 30
0.0
 11
881.0679677689
 21
139.0900382366
 31
0.0
  0
LINE
  5
167
330
1F
100
AcDbEntity
  8
FORMAT
100
AcDbLine
 10
881.0679677689
 20
139.0900382366
 30
0.0
 11
881.0741673868
 21
139.1163867908
 31
0.0
  0
LINE
  5
168
330
1F
100
AcDbEntity
  8
FORMAT
100
AcDbLine
 10
881.0741673868
 20
139.1163867908
 30
0.0
 11
881.0792598029
 21
139.1431782257
 31
0.0
  0
LINE
  5
169
330
1F
100
AcDbEntity
  8
FORMAT
100
AcDbLine
 10
881.0792598029
 20
139.1431782257
 30
0.0
 11
881.083687898
 21
139.1699689486
 31
0.0
  0
LINE
  5
16A
330
1F
100
AcDbEntity
  8
FORMAT
100
AcDbLine
 10
881.083687898
 20
139.1699689486
 30
0.0
 11
881.086788063
 21
139.1972032642
 31
0.0
  0
LINE
  5
16B
330
1F
100
AcDbEntity
  8
FORMAT
100
AcDbLine
 10
881.086788063
 20
139.1972032642
 30
0.0
 11
881.0892231949
 21
139.2246583081
 31
0.0
  0
LINE
  5
16C
330
1F
100
AcDbEntity
  8
FORMAT
100
AcDbLine
 10
881.0892231949
 20
139.2246583081
 30
0.0
 11
881.0907732774
 21
139.2523355045
 31
0.0
  0
LINE
  5
16D
330
1F
100
AcDbEntity
  8
FORMAT
100
AcDbLine
 10
881.0907732774
 20
139.2523355045
 30
0.0
 11
881.0912161581
 21
139.2802334291
 31
0.0
  0
LINE
  5
16E
330
1F
100
AcDbEntity
  8
FORMAT
100
AcDbLine
 10
881.0912161581
 20
139.2802334291
 30
0.0
 11
881.0909947177
 21
139.306360543
 31
0.0
  0
LINE
  5
16F
330
1F
100
AcDbEntity
  8
FORMAT
100
AcDbLine
 10
881.0909947177
 20
139.306360543
 30
0.0
 11
881.0901089563
 21
139.3424510487
 31
0.0
  0
LINE
  5
170
330
1F
100
AcDbEntity
  8
FORMAT
100
AcDbLine
 10
881.0901089563
 20
139.3424510487
 30
0.0
 11
881.0885595858
 21
139.3778772334
 31
0.0
  0
LINE
  5
171
330
1F
100
AcDbEntity
  8
FORMAT
100
AcDbLine
 10
881.0885595858
 20
139.3778772334
 30
0.0
 11
881.0863451823
 21
139.4121969284
 31
0.0
  0
LINE
  5
172
330
1F
100
AcDbEntity
  8
FORMAT
100
AcDbLine
 10
881.0863451823
 20
139.4121969284
 30
0.0
 11
881.0834664577
 21
139.4460730306
 31
0.0
  0
LINE
  5
173
330
1F
100
AcDbEntity
  8
FORMAT
100
AcDbLine
 10
881.0834664577
 20
139.4460730306
 30
0.0
 11
881.0797026837
 21
139.4788426431
 31
0.0
  0
LINE
  5
174
330
1F
100
AcDbEntity
  8
FORMAT
100
AcDbLine
 10
881.0797026837
 20
139.4788426431
 30
0.0
 11
881.0752745886
 21
139.5111686628
 31
0.0
  0
LINE
  5
175
330
1F
100
AcDbEntity
  8
FORMAT
100
AcDbLine
 10
881.0752745886
 20
139.5111686628
 30
0.0
 11
881.0701821724
 21
139.5423881928
 31
0.0
  0
LINE
  5
176
330
1F
100
AcDbEntity
  8
FORMAT
100
AcDbLine
 10
881.0701821724
 20
139.5423881928
 30
0.0
 11
881.0644254352
 21
139.5729434018
 31
0.0
  0
LINE
  5
177
330
1F
100
AcDbEntity
  8
FORMAT
100
AcDbLine
 10
881.0644254352
 20
139.5729434018
 30
0.0
 11
881.0580043769
 21
139.6026135613
 31
0.0
  0
LINE
  5
178
330
1F
100
AcDbEntity
  8
FORMAT
100
AcDbLine
 10
881.0580043769
 20
139.6026135613
 30
0.0
 11
881.0509189976
 21
139.6316186877
 31
0.0
  0
LINE
  5
179
330
1F
100
AcDbEntity
  8
FORMAT
100
AcDbLine
 10
881.0509189976
 20
139.6316186877
 30
0.0
 11
881.0429478568
 21
139.6597380527
 31
0.0
  0
LINE
  5
17A
330
1F
100
AcDbEntity
  8
FORMAT
100
AcDbLine
 10
881.0429478568
 20
139.6597380527
 30
0.0
 11
881.034312395
 21
139.6869723683
 31
0.0
  0
LINE
  5
17B
330
1F
100
AcDbEntity
  8
FORMAT
100
AcDbLine
 10
881.034312395
 20
139.6869723683
 30
0.0
 11
881.0250133241
 21
139.7135416509
 31
0.0
  0
LINE
  5
17C
330
1F
100
AcDbEntity
  8
FORMAT
100
AcDbLine
 10
881.0250133241
 20
139.7135416509
 30
0.0
 11
881.0150499321
 21
139.7394473243
 31
0.0
  0
LINE
  5
17D
330
1F
100
AcDbEntity
  8
FORMAT
100
AcDbLine
 10
881.0150499321
 20
139.7394473243
 30
0.0
 11
881.0044215071
 21
139.764245796
 31
0.0
  0
LINE
  5
17E
330
1F
100
AcDbEntity
  8
FORMAT
100
AcDbLine
 10
881.0044215071
 20
139.764245796
 30
0.0
 11
880.9929080327
 21
139.7883799467
 31
0.0
  0
LINE
  5
17F
330
1F
100
AcDbEntity
  8
FORMAT
100
AcDbLine
 10
880.9929080327
 20
139.7883799467
 30
0.0
 11
880.9809516775
 21
139.8118497763
 31
0.0
  0
LINE
  5
180
330
1F
100
AcDbEntity
  8
FORMAT
100
AcDbLine
 10
880.9809516775
 20
139.8118497763
 30
0.0
 11
880.968109561
 21
139.8344345564
 31
0.0
  0
LINE
  5
181
330
1F
100
AcDbEntity
  8
FORMAT
100
AcDbLine
 10
880.968109561
 20
139.8344345564
 30
0.0
 11
880.9546031233
 21
139.8561328632
 31
0.0
  0
LINE
  5
182
330
1F
100
AcDbEntity
  8
FORMAT
100
AcDbLine
 10
880.9546031233
 20
139.8561328632
 30
0.0
 11
880.9404330767
 21
139.8771675609
 31
0.0
  0
LINE
  5
183
330
1F
100
AcDbEntity
  8
FORMAT
100
AcDbLine
 10
880.9404330767
 20
139.8771675609
 30
0.0
 11
880.9253765565
 21
139.8973157851
 31
0.0
  0
LINE
  5
184
330
1F
100
AcDbEntity
  8
FORMAT
100
AcDbLine
 10
880.9253765565
 20
139.8973157851
 30
0.0
 11
880.9098778677
 21
139.9165789599
 31
0.0
  0
LINE
  5
185
330
1F
100
AcDbEntity
  8
FORMAT
100
AcDbLine
 10
880.9098778677
 20
139.9165789599
 30
0.0
 11
880.8934927055
 21
139.9351778137
 31
0.0
  0
LINE
  5
186
330
1F
100
AcDbEntity
  8
FORMAT
100
AcDbLine
 10
880.8934927055
 20
139.9351778137
 30
0.0
 11
880.8788797781
 21
139.9504557742
 31
0.0
  0
LINE
  5
187
330
1F
100
AcDbEntity
  8
FORMAT
100
AcDbLine
 10
880.8788797781
 20
139.9504557742
 30
0.0
 11
880.8616095665
 21
139.9668402244
 31
0.0
  0
LINE
  5
188
330
1F
100
AcDbEntity
  8
FORMAT
100
AcDbLine
 10
880.8616095665
 20
139.9668402244
 30
0.0
 11
880.8436750338
 21
139.982782506
 31
0.0
  0
LINE
  5
189
330
1F
100
AcDbEntity
  8
FORMAT
100
AcDbLine
 10
880.8436750338
 20
139.982782506
 30
0.0
 11
880.82507618
 21
139.9980597544
 31
0.0
  0
LINE
  5
18A
330
1F
100
AcDbEntity
  8
FORMAT
100
AcDbLine
 10
880.82507618
 20
139.9980597544
 30
0.0
 11
880.8055915648
 21
140.0126733938
 31
0.0
  0
LINE
  5
18B
330
1F
100
AcDbEntity
  8
FORMAT
100
AcDbLine
 10
880.8055915648
 20
140.0126733938
 30
0.0
 11
880.7852211881
 21
140.0268434405
 31
0.0
  0
LINE
  5
18C
330
1F
100
AcDbEntity
  8
FORMAT
100
AcDbLine
 10
880.7852211881
 20
140.0268434405
 30
0.0
 11
880.7641872025
 21
140.0403498782
 31
0.0
  0
LINE
  5
18D
330
1F
100
AcDbEntity
  8
FORMAT
100
AcDbLine
 10
880.7641872025
 20
140.0403498782
 30
0.0
 11
880.7424881837
 21
140.0531919947
 31
0.0
  0
LINE
  5
18E
330
1F
100
AcDbEntity
  8
FORMAT
100
AcDbLine
 10
880.7424881837
 20
140.0531919947
 30
0.0
 11
880.7199041156
 21
140.0655912306
 31
0.0
  0
LINE
  5
18F
330
1F
100
AcDbEntity
  8
FORMAT
100
AcDbLine
 10
880.7199041156
 20
140.0655912306
 30
0.0
 11
880.6966557263
 21
140.0773261454
 31
0.0
  0
LINE
  5
190
330
1F
100
AcDbEntity
  8
FORMAT
100
AcDbLine
 10
880.6966557263
 20
140.0773261454
 30
0.0
 11
880.6725208637
 21
140.0883967391
 31
0.0
  0
LINE
  5
191
330
1F
100
AcDbEntity
  8
FORMAT
100
AcDbLine
 10
880.6725208637
 20
140.0883967391
 30
0.0
 11
880.647723104
 21
140.0990251641
 31
0.0
  0
LINE
  5
192
330
1F
100
AcDbEntity
  8
FORMAT
100
AcDbLine
 10
880.647723104
 20
140.0990251641
 30
0.0
 11
880.6220388709
 21
140.1087671157
 31
0.0
  0
LINE
  5
193
330
1F
100
AcDbEntity
  8
FORMAT
100
AcDbLine
 10
880.6220388709
 20
140.1087671157
 30
0.0
 11
880.5956903167
 21
140.1180661866
 31
0.0
  0
LINE
  5
194
330
1F
100
AcDbEntity
  8
FORMAT
100
AcDbLine
 10
880.5956903167
 20
140.1180661866
 30
0.0
 11
880.5684560011
 21
140.1269230888
 31
0.0
  0
LINE
  5
195
330
1F
100
AcDbEntity
  8
FORMAT
100
AcDbLine
 10
880.5684560011
 20
140.1269230888
 30
0.0
 11
880.5405580764
 21
140.1348942295
 31
0.0
  0
LINE
  5
196
330
1F
100
AcDbEntity
  8
FORMAT
100
AcDbLine
 10
880.5405580764
 20
140.1348942295
 30
0.0
 11
880.5117743904
 21
140.1424217776
 31
0.0
  0
LINE
  5
197
330
1F
100
AcDbEntity
  8
FORMAT
100
AcDbLine
 10
880.5117743904
 20
140.1424217776
 30
0.0
 11
880.4823263832
 21
140.1492857166
 31
0.0
  0
LINE
  5
198
330
1F
100
AcDbEntity
  8
FORMAT
100
AcDbLine
 10
880.4823263832
 20
140.1492857166
 30
0.0
 11
880.452213343
 21
140.1557067748
 31
0.0
  0
LINE
  5
199
330
1F
100
AcDbEntity
  8
FORMAT
100
AcDbLine
 10
880.452213343
 20
140.1557067748
 30
0.0
 11
880.420994525
 21
140.1612420717
 31
0.0
  0
LINE
  5
19A
330
1F
100
AcDbEntity
  8
FORMAT
100
AcDbLine
 10
880.420994525
 20
140.1612420717
 30
0.0
 11
880.3893321143
 21
140.1665566402
 31
0.0
  0
LINE
  5
19B
330
1F
100
AcDbEntity
  8
FORMAT
100
AcDbLine
 10
880.3893321143
 20
140.1665566402
 30
0.0
 11
880.3567839422
 21
140.1709847353
 31
0.0
  0
LINE
  5
19C
330
1F
100
AcDbEntity
  8
FORMAT
100
AcDbLine
 10
880.3567839422
 20
140.1709847353
 30
0.0
 11
880.323571449
 21
140.1747485093
 31
0.0
  0
LINE
  5
19D
330
1F
100
AcDbEntity
  8
FORMAT
100
AcDbLine
 10
880.323571449
 20
140.1747485093
 30
0.0
 11
880.2894739064
 21
140.1780701147
 31
0.0
  0
LINE
  5
19E
330
1F
100
AcDbEntity
  8
FORMAT
100
AcDbLine
 10
880.2894739064
 20
140.1780701147
 30
0.0
 11
880.2544906024
 21
140.1809481273
 31
0.0
  0
LINE
  5
19F
330
1F
100
AcDbEntity
  8
FORMAT
100
AcDbLine
 10
880.2544906024
 20
140.1809481273
 30
0.0
 11
880.2188429774
 21
140.1829410905
 31
0.0
  0
LINE
  5
1A0
330
1F
100
AcDbEntity
  8
FORMAT
100
AcDbLine
 10
880.2188429774
 20
140.1829410905
 30
0.0
 11
880.1825303192
 21
140.1844911729
 31
0.0
  0
LINE
  5
1A1
330
1F
100
AcDbEntity
  8
FORMAT
100
AcDbLine
 10
880.1825303192
 20
140.1844911729
 30
0.0
 11
880.1453326116
 21
140.1853762223
 31
0.0
  0
LINE
  5
1A2
330
1F
100
AcDbEntity
  8
FORMAT
100
AcDbLine
 10
880.1453326116
 20
140.1853762223
 30
0.0
 11
880.107471295
 21
140.1855976627
 31
0.0
  0
LINE
  5
1A3
330
1F
100
AcDbEntity
  8
FORMAT
100
AcDbLine
 10
880.107471295
 20
140.1855976627
 30
0.0
 11
878.6408205549
 21
140.1855976627
 31
0.0
  0
LINE
  5
1A4
330
1F
100
AcDbEntity
  8
FORMAT
100
AcDbLine
 10
878.6408205549
 20
140.1855976627
 30
0.0
 11
878.6408205549
 21
136.9817281092
 31
0.0
  0
LINE
  5
1A5
330
1F
100
AcDbEntity
  8
FORMAT
100
AcDbLine
 10
878.6408205549
 20
136.9817281092
 30
0.0
 11
879.0535376717
 21
136.9817281092
 31
0.0
  0
LINE
  5
1A6
330
1F
100
AcDbEntity
  8
FORMAT
100
AcDbLine
 10
879.0535376717
 20
136.9817281092
 30
0.0
 11
879.0535376717
 21
138.3573775438
 31
0.0
  0
LINE
  5
1A7
330
1F
100
AcDbEntity
  8
FORMAT
100
AcDbLine
 10
879.0535376717
 20
138.3573775438
 30
0.0
 11
880.1293910421
 21
138.3573775438
 31
0.0
  0
LINE
  5
1A8
330
1F
100
AcDbEntity
  8
FORMAT
100
AcDbLine
 10
880.1293910421
 20
138.3573775438
 30
0.0
 11
880.1537466331
 21
138.3569346631
 31
0.0
  0
LINE
  5
1A9
330
1F
100
AcDbEntity
  8
FORMAT
100
AcDbLine
 10
880.1537466331
 20
138.3569346631
 30
0.0
 11
880.1825303192
 21
138.3553845806
 31
0.0
  0
LINE
  5
1AA
330
1F
100
AcDbEntity
  8
FORMAT
100
AcDbLine
 10
880.1825303192
 20
138.3553845806
 30
0.0
 11
880.2106503962
 21
138.3527272963
 31
0.0
  0
LINE
  5
1AB
330
1F
100
AcDbEntity
  8
FORMAT
100
AcDbLine
 10
880.2106503962
 20
138.3527272963
 30
0.0
 11
880.2376625595
 21
138.3489635223
 31
0.0
  0
LINE
  5
1AC
330
1F
100
AcDbEntity
  8
FORMAT
100
AcDbLine
 10
880.2376625595
 20
138.3489635223
 30
0.0
 11
880.2637896733
 21
138.3440925465
 31
0.0
  0
LINE
  5
1AD
330
1F
100
AcDbEntity
  8
FORMAT
100
AcDbLine
 10
880.2637896733
 20
138.3440925465
 30
0.0
 11
880.2890310257
 21
138.3378929286
 31
0.0
  0
LINE
  5
1AE
330
1F
100
AcDbEntity
  8
FORMAT
100
AcDbLine
 10
880.2890310257
 20
138.3378929286
 30
0.0
 11
880.3133866167
 21
138.3308075492
 31
0.0
  0
LINE
  5
1AF
330
1F
100
AcDbEntity
  8
FORMAT
100
AcDbLine
 10
880.3133866167
 20
138.3308075492
 30
0.0
 11
880.3368564463
 21
138.3223935277
 31
0.0
  0
LINE
  5
1B0
330
1F
100
AcDbEntity
  8
FORMAT
100
AcDbLine
 10
880.3368564463
 20
138.3223935277
 30
0.0
 11
880.3594412265
 21
138.3128730165
 31
0.0
  0
LINE
  5
1B1
330
1F
100
AcDbEntity
  8
FORMAT
100
AcDbLine
 10
880.3594412265
 20
138.3128730165
 30
0.0
 11
880.3809180928
 21
138.3020238631
 31
0.0
  0
LINE
  5
1B2
330
1F
100
AcDbEntity
  8
FORMAT
100
AcDbLine
 10
880.3809180928
 20
138.3020238631
 30
0.0
 11
880.4017313502
 21
138.2902889484
 31
0.0
  0
LINE
  5
1B3
330
1F
100
AcDbEntity
  8
FORMAT
100
AcDbLine
 10
880.4017313502
 20
138.2902889484
 30
0.0
 11
880.4214366937
 21
138.2772253914
 31
0.0
  0
LINE
  5
1B4
330
1F
100
AcDbEntity
  8
FORMAT
100
AcDbLine
 10
880.4214366937
 20
138.2772253914
 30
0.0
 11
880.4402569878
 21
138.2632760731
 31
0.0
  0
LINE
  5
1B5
330
1F
100
AcDbEntity
  8
FORMAT
100
AcDbLine
 10
880.4402569878
 20
138.2632760731
 30
0.0
 11
880.4581915205
 21
138.2479988246
 31
0.0
  0
LINE
  5
1B6
330
1F
100
AcDbEntity
  8
FORMAT
100
AcDbLine
 10
880.4581915205
 20
138.2479988246
 30
0.0
 11
880.4752410039
 21
138.2316136624
 31
0.0
  0
LINE
  5
1B7
330
1F
100
AcDbEntity
  8
FORMAT
100
AcDbLine
 10
880.4752410039
 20
138.2316136624
 30
0.0
 11
880.4914040137
 21
138.21390057
 31
0.0
  0
LINE
  5
1B8
330
1F
100
AcDbEntity
  8
FORMAT
100
AcDbLine
 10
880.4914040137
 20
138.21390057
 30
0.0
 11
880.5066819742
 21
138.1953017163
 31
0.0
  0
LINE
  5
1B9
330
1F
100
AcDbEntity
  8
FORMAT
100
AcDbLine
 10
880.5066819742
 20
138.1953017163
 30
0.0
 11
880.5208520209
 21
138.1753742204
 31
0.0
  0
LINE
  5
1BA
330
1F
100
AcDbEntity
  8
FORMAT
100
AcDbLine
 10
880.5208520209
 20
138.1753742204
 30
0.0
 11
880.5343584585
 21
138.1543402347
 31
0.0
  0
LINE
  5
1BB
330
1F
100
AcDbEntity
  8
FORMAT
100
AcDbLine
 10
880.5343584585
 20
138.1543402347
 30
0.0
 11
880.5467576944
 21
138.1321983352
 31
0.0
  0
LINE
  5
1BC
330
1F
100
AcDbEntity
  8
FORMAT
100
AcDbLine
 10
880.5467576944
 20
138.1321983352
 30
0.0
 11
880.5584926091
 21
138.108949946
 31
0.0
  0
LINE
  5
1BD
330
1F
100
AcDbEntity
  8
FORMAT
100
AcDbLine
 10
880.5584926091
 20
138.108949946
 30
0.0
 11
880.5691203221
 21
138.084594355
 31
0.0
  0
LINE
  5
1BE
330
1F
100
AcDbEntity
  8
FORMAT
100
AcDbLine
 10
880.5691203221
 20
138.084594355
 30
0.0
 11
880.5788629857
 21
138.0589101219
 31
0.0
  0
LINE
  5
1BF
330
1F
100
AcDbEntity
  8
FORMAT
100
AcDbLine
 10
880.5788629857
 20
138.0589101219
 30
0.0
 11
880.5877191759
 21
138.0323408394
 31
0.0
  0
LINE
  5
1C0
330
1F
100
AcDbEntity
  8
FORMAT
100
AcDbLine
 10
880.5877191759
 20
138.0323408394
 30
0.0
 11
880.5956903167
 21
138.0044422027
 31
0.0
  0
LINE
  5
1C1
330
1F
100
AcDbEntity
  8
FORMAT
100
AcDbLine
 10
880.5956903167
 20
138.0044422027
 30
0.0
 11
880.6025542557
 21
137.9754370763
 31
0.0
  0
LINE
  5
1C2
330
1F
100
AcDbEntity
  8
FORMAT
100
AcDbLine
 10
880.6025542557
 20
137.9754370763
 30
0.0
 11
880.6087538736
 21
137.9451033077
 31
0.0
  0
LINE
  5
1C3
330
1F
100
AcDbEntity
  8
FORMAT
100
AcDbLine
 10
880.6087538736
 20
137.9451033077
 30
0.0
 11
880.6138462898
 21
137.9138837777
 31
0.0
  0
LINE
  5
1C4
330
1F
100
AcDbEntity
  8
FORMAT
100
AcDbLine
 10
880.6138462898
 20
137.9138837777
 30
0.0
 11
880.6182743848
 21
137.8813356056
 31
0.0
  0
LINE
  5
1C5
330
1F
100
AcDbEntity
  8
FORMAT
100
AcDbLine
 10
880.6182743848
 20
137.8813356056
 30
0.0
 11
880.6215959902
 21
137.8479023841
 31
0.0
  0
LINE
  5
1C6
330
1F
100
AcDbEntity
  8
FORMAT
100
AcDbLine
 10
880.6215959902
 20
137.8479023841
 30
0.0
 11
880.6240311221
 21
137.8131405204
 31
0.0
  0
LINE
  5
1C7
330
1F
100
AcDbEntity
  8
FORMAT
100
AcDbLine
 10
880.6240311221
 20
137.8131405204
 30
0.0
 11
880.6255812045
 21
137.777270743
 31
0.0
  0
LINE
  5
1C8
330
1F
100
AcDbEntity
  8
FORMAT
100
AcDbLine
 10
880.6255812045
 20
137.777270743
 30
0.0
 11
880.6246954431
 21
137.7573439591
 31
0.0
  0
LINE
  5
1C9
330
1F
100
AcDbEntity
  8
FORMAT
100
AcDbLine
 10
880.6246954431
 20
137.7573439591
 30
0.0
 11
880.6229246323
 21
137.7194819305
 31
0.0
  0
LINE
  5
1CA
330
1F
100
AcDbEntity
  8
FORMAT
100
AcDbLine
 10
880.6229246323
 20
137.7194819305
 30
0.0
 11
880.6213745498
 21
137.6827271036
 31
0.0
  0
LINE
  5
1CB
330
1F
100
AcDbEntity
  8
FORMAT
100
AcDbLine
 10
880.6213745498
 20
137.6827271036
 30
0.0
 11
880.620267348
 21
137.6470794786
 31
0.0
  0
LINE
  5
1CC
330
1F
100
AcDbEntity
  8
FORMAT
100
AcDbLine
 10
880.620267348
 20
137.6470794786
 30
0.0
 11
880.619603027
 21
137.6125383432
 31
0.0
  0
LINE
  5
1CD
330
1F
100
AcDbEntity
  8
FORMAT
100
AcDbLine
 10
880.619603027
 20
137.6125383432
 30
0.0
 11
880.6193815866
 21
137.5791051217
 31
0.0
  0
LINE
  5
1CE
330
1F
100
AcDbEntity
  8
FORMAT
100
AcDbLine
 10
880.6193815866
 20
137.5791051217
 30
0.0
 11
880.6193815866
 21
137.5465569496
 31
0.0
  0
LINE
  5
1CF
330
1F
100
AcDbEntity
  8
FORMAT
100
AcDbLine
 10
880.6193815866
 20
137.5465569496
 30
0.0
 11
880.619603027
 21
137.5151159793
 31
0.0
  0
LINE
  5
1D0
330
1F
100
AcDbEntity
  8
FORMAT
100
AcDbLine
 10
880.619603027
 20
137.5151159793
 30
0.0
 11
880.6204887884
 21
137.4847822107
 31
0.0
  0
LINE
  5
1D1
330
1F
100
AcDbEntity
  8
FORMAT
100
AcDbLine
 10
880.6204887884
 20
137.4847822107
 30
0.0
 11
880.6213745498
 21
137.4555556439
 31
0.0
  0
LINE
  5
1D2
330
1F
100
AcDbEntity
  8
FORMAT
100
AcDbLine
 10
880.6213745498
 20
137.4555556439
 30
0.0
 11
880.6229246323
 21
137.4274355669
 31
0.0
  0
LINE
  5
1D3
330
1F
100
AcDbEntity
  8
FORMAT
100
AcDbLine
 10
880.6229246323
 20
137.4274355669
 30
0.0
 11
880.6246954431
 21
137.4002019633
 31
0.0
  0
LINE
  5
1D4
330
1F
100
AcDbEntity
  8
FORMAT
100
AcDbLine
 10
880.6246954431
 20
137.4002019633
 30
0.0
 11
880.6266884063
 21
137.3742962898
 31
0.0
  0
LINE
  5
1D5
330
1F
100
AcDbEntity
  8
FORMAT
100
AcDbLine
 10
880.6266884063
 20
137.3742962898
 30
0.0
 11
880.6293456906
 21
137.3492763778
 31
0.0
  0
LINE
  5
1D6
330
1F
100
AcDbEntity
  8
FORMAT
100
AcDbLine
 10
880.6293456906
 20
137.3492763778
 30
0.0
 11
880.6320022628
 21
137.3253636675
 31
0.0
  0
LINE
  5
1D7
330
1F
100
AcDbEntity
  8
FORMAT
100
AcDbLine
 10
880.6320022628
 20
137.3253636675
 30
0.0
 11
880.6353238682
 21
137.3023367186
 31
0.0
  0
LINE
  5
1D8
330
1F
100
AcDbEntity
  8
FORMAT
100
AcDbLine
 10
880.6353238682
 20
137.3023367186
 30
0.0
 11
880.6388662018
 21
137.2806376999
 31
0.0
  0
LINE
  5
1D9
330
1F
100
AcDbEntity
  8
FORMAT
100
AcDbLine
 10
880.6388662018
 20
137.2806376999
 30
0.0
 11
880.640194844
 21
137.2722243904
 31
0.0
  0
LINE
  5
1DA
330
1F
100
AcDbEntity
  8
FORMAT
100
AcDbLine
 10
880.640194844
 20
137.2722243904
 30
0.0
 11
880.6457301408
 21
137.2416691815
 31
0.0
  0
LINE
  5
1DB
330
1F
100
AcDbEntity
  8
FORMAT
100
AcDbLine
 10
880.6457301408
 20
137.2416691815
 30
0.0
 11
880.6517083184
 21
137.2115568533
 31
0.0
  0
LINE
  5
1DC
330
1F
100
AcDbEntity
  8
FORMAT
100
AcDbLine
 10
880.6517083184
 20
137.2115568533
 30
0.0
 11
880.658350817
 21
137.1816659654
 31
0.0
  0
LINE
  5
1DD
330
1F
100
AcDbEntity
  8
FORMAT
100
AcDbLine
 10
880.658350817
 20
137.1816659654
 30
0.0
 11
880.665214756
 21
137.1519958059
 31
0.0
  0
LINE
  5
1DE
330
1F
100
AcDbEntity
  8
FORMAT
100
AcDbLine
 10
880.665214756
 20
137.1519958059
 30
0.0
 11
880.672742304
 21
137.1227692391
 31
0.0
  0
LINE
  5
1DF
330
1F
100
AcDbEntity
  8
FORMAT
100
AcDbLine
 10
880.672742304
 20
137.1227692391
 30
0.0
 11
880.6809348852
 21
137.093985553
 31
0.0
  0
LINE
  5
1E0
330
1F
100
AcDbEntity
  8
FORMAT
100
AcDbLine
 10
880.6809348852
 20
137.093985553
 30
0.0
 11
880.6893489067
 21
137.0654233073
 31
0.0
  0
LINE
  5
1E1
330
1F
100
AcDbEntity
  8
FORMAT
100
AcDbLine
 10
880.6893489067
 20
137.0654233073
 30
0.0
 11
880.6984265372
 21
137.0370817899
 31
0.0
  0
LINE
  5
1E2
330
1F
100
AcDbEntity
  8
FORMAT
100
AcDbLine
 10
880.6984265372
 20
137.0370817899
 30
0.0
 11
880.7079477604
 21
137.0091838653
 31
0.0
  0
LINE
  5
1E3
330
1F
100
AcDbEntity
  8
FORMAT
100
AcDbLine
 10
880.7079477604
 20
137.0091838653
 30
0.0
 11
880.7179111524
 21
136.9817281093
 31
0.0
  0
LINE
  5
1E4
330
1F
100
AcDbEntity
  8
FORMAT
100
AcDbLine
 10
880.7179111524
 20
136.9817281093
 30
0.0
 11
881.2141013148
 21
136.9817281093
 31
0.0
  0
LINE
  5
1E5
330
1F
100
AcDbEntity
  8
FORMAT
100
AcDbLine
 10
881.2141013148
 20
136.9817281093
 30
0.0
 11
881.2141013148
 21
137.0871216139
 31
0.0
  0
LINE
  5
1E6
330
1F
100
AcDbEntity
  8
FORMAT
100
AcDbLine
 10
881.2141013148
 20
137.0871216139
 30
0.0
 11
881.1939523785
 21
137.1043918255
 31
0.0
  0
LINE
  5
1E7
330
1F
100
AcDbEntity
  8
FORMAT
100
AcDbLine
 10
881.1939523785
 20
137.1043918255
 30
0.0
 11
881.1722540718
 21
137.1252050829
 31
0.0
  0
LINE
  5
1E8
330
1F
100
AcDbEntity
  8
FORMAT
100
AcDbLine
 10
881.1722540718
 20
137.1252050829
 30
0.0
 11
881.1525480162
 21
137.14712483
 31
0.0
  0
LINE
  5
1E9
330
1F
100
AcDbEntity
  8
FORMAT
100
AcDbLine
 10
881.1525480162
 20
137.14712483
 30
0.0
 11
881.1348349239
 21
137.1699303385
 31
0.0
  0
LINE
  5
1EA
330
1F
100
AcDbEntity
  8
FORMAT
100
AcDbLine
 10
881.1348349239
 20
137.1699303385
 30
0.0
 11
881.1191147947
 21
137.1940652011
 31
0.0
  0
LINE
  5
1EB
330
1F
100
AcDbEntity
  8
FORMAT
100
AcDbLine
 10
881.1191147947
 20
137.1940652011
 30
0.0
 11
881.1051654764
 21
137.2190844012
 31
0.0
  0
LINE
  5
1EC
330
1F
100
AcDbEntity
  8
FORMAT
100
AcDbLine
 10
881.1051654764
 20
137.2190844012
 30
0.0
 11
881.0932091212
 21
137.2449900746
 31
0.0
  0
LINE
  5
1ED
330
1F
100
AcDbEntity
  8
FORMAT
100
AcDbLine
 10
881.0932091212
 20
137.2449900746
 30
0.0
 11
881.0832450172
 21
137.2722243903
 31
0.0
  0
LINE
  5
1EE
330
1F
100
AcDbEntity
  8
FORMAT
100
AcDbLine
 10
881.0832450172
 20
137.2722243903
 30
0.0
 11
881.0750531482
 21
137.3003437553
 31
0.0
  0
LINE
  5
1EF
330
1F
100
AcDbEntity
  8
FORMAT
100
AcDbLine
 10
881.0750531482
 20
137.3003437553
 30
0.0
 11
881.0690749706
 21
137.3293488817
 31
0.0
  0
LINE
  5
1F0
330
1F
100
AcDbEntity
  8
FORMAT
100
AcDbLine
 10
881.0690749706
 20
137.3293488817
 30
0.0
 11
881.0648676038
 21
137.3596826503
 31
0.0
  0
LINE
  5
1F1
330
1F
100
AcDbEntity
  8
FORMAT
100
AcDbLine
 10
881.0648676038
 20
137.3596826503
 30
0.0
 11
881.0644254351
 21
137.3661037085
 31
0.0
  0
LINE
  5
1F2
330
1F
100
AcDbEntity
  8
FORMAT
100
AcDbLine
 10
881.0644254351
 20
137.3661037085
 30
0.0
 11
881.0617681509
 21
137.4075087829
 31
0.0
  0
LINE
  5
1F3
330
1F
100
AcDbEntity
  8
FORMAT
100
AcDbLine
 10
881.0617681509
 20
137.4075087829
 30
0.0
 11
881.0591108666
 21
137.4478059434
 31
0.0
  0
LINE
  5
1F4
330
1F
100
AcDbEntity
  8
FORMAT
100
AcDbLine
 10
881.0591108666
 20
137.4478059434
 30
0.0
 11
881.0566757347
 21
137.4869966141
 31
0.0
  0
LINE
  5
1F5
330
1F
100
AcDbEntity
  8
FORMAT
100
AcDbLine
 10
881.0566757347
 20
137.4869966141
 30
0.0
 11
881.0542398908
 21
137.5250800831
 31
0.0
  0
LINE
  5
1F6
330
1F
100
AcDbEntity
  8
FORMAT
100
AcDbLine
 10
881.0542398908
 20
137.5250800831
 30
0.0
 11
881.0520261993
 21
137.5622770786
 31
0.0
  0
LINE
  5
1F7
330
1F
100
AcDbEntity
  8
FORMAT
100
AcDbLine
 10
881.0520261993
 20
137.5622770786
 30
0.0
 11
881.0498117957
 21
137.5981468561
 31
0.0
  0
LINE
  5
1F8
330
1F
100
AcDbEntity
  8
FORMAT
100
AcDbLine
 10
881.0498117957
 20
137.5981468561
 30
0.0
 11
881.0475973922
 21
137.6331301601
 31
0.0
  0
LINE
  5
1F9
330
1F
100
AcDbEntity
  8
FORMAT
100
AcDbLine
 10
881.0475973922
 20
137.6331301601
 30
0.0
 11
881.0458265814
 21
137.6670062623
 31
0.0
  0
LINE
  5
1FA
330
1F
100
AcDbEntity
  8
FORMAT
100
AcDbLine
 10
881.0458265814
 20
137.6670062623
 30
0.0
 11
881.0438336182
 21
137.6997758748
 31
0.0
  0
LINE
  5
1FB
330
1F
100
AcDbEntity
  8
FORMAT
100
AcDbLine
 10
881.0438336182
 20
137.6997758748
 30
0.0
 11
881.0420620953
 21
137.7314382855
 31
0.0
  0
LINE
  5
1FC
330
1F
100
AcDbEntity
  8
FORMAT
100
AcDbLine
 10
881.0420620953
 20
137.7314382855
 30
0.0
 11
881.0405120128
 21
137.7619934944
 31
0.0
  0
LINE
  5
1FD
330
1F
100
AcDbEntity
  8
FORMAT
100
AcDbLine
 10
881.0405120128
 20
137.7619934944
 30
0.0
 11
881.0389626424
 21
137.7914415015
 31
0.0
  0
LINE
  5
1FE
330
1F
100
AcDbEntity
  8
FORMAT
100
AcDbLine
 10
881.0389626424
 20
137.7914415015
 30
0.0
 11
881.0376340002
 21
137.8200037472
 31
0.0
  0
LINE
  5
1FF
330
1F
100
AcDbEntity
  8
FORMAT
100
AcDbLine
 10
881.0376340002
 20
137.8200037472
 30
0.0
 11
881.0363053581
 21
137.8472380629
 31
0.0
  0
LINE
  5
200
330
1F
100
AcDbEntity
  8
FORMAT
100
AcDbLine
 10
881.0363053581
 20
137.8472380629
 30
0.0
 11
881.034976716
 21
137.8735866171
 31
0.0
  0
LINE
  5
201
330
1F
100
AcDbEntity
  8
FORMAT
100
AcDbLine
 10
881.034976716
 20
137.8735866171
 30
0.0
 11
881.0340909546
 21
137.8988279695
 31
0.0
  0
LINE
  5
202
330
1F
100
AcDbEntity
  8
FORMAT
100
AcDbLine
 10
881.0340909546
 20
137.8988279695
 30
0.0
 11
881.0329844648
 21
137.9229621201
 31
0.0
  0
LINE
  5
203
330
1F
100
AcDbEntity
  8
FORMAT
100
AcDbLine
 10
881.0329844648
 20
137.9229621201
 30
0.0
 11
881.0320987034
 21
137.9462105093
 31
0.0
  0
LINE
  5
204
330
1F
100
AcDbEntity
  8
FORMAT
100
AcDbLine
 10
881.0320987034
 20
137.9462105093
 30
0.0
 11
881.0314343823
 21
137.9681302564
 31
0.0
  0
LINE
  5
205
330
1F
100
AcDbEntity
  8
FORMAT
100
AcDbLine
 10
881.0314343823
 20
137.9681302564
 30
0.0
 11
881.0307700612
 21
137.9891649541
 31
0.0
  0
LINE
  5
206
330
1F
100
AcDbEntity
  8
FORMAT
100
AcDbLine
 10
881.0307700612
 20
137.9891649541
 30
0.0
 11
881.0301057402
 21
138.0088710097
 31
0.0
  0
LINE
  5
207
330
1F
100
AcDbEntity
  8
FORMAT
100
AcDbLine
 10
881.0301057402
 20
138.0088710097
 30
0.0
 11
881.0296628595
 21
138.0276913038
 31
0.0
  0
LINE
  5
208
330
1F
100
AcDbEntity
  8
FORMAT
100
AcDbLine
 10
881.0296628595
 20
138.0276913038
 30
0.0
 11
881.0267848469
 21
138.0580250723
 31
0.0
  0
LINE
  5
209
330
1F
100
AcDbEntity
  8
FORMAT
100
AcDbLine
 10
881.0267848469
 20
138.0580250723
 30
0.0
 11
881.0221345994
 21
138.0954435082
 31
0.0
  0
LINE
  5
20A
330
1F
100
AcDbEntity
  8
FORMAT
100
AcDbLine
 10
881.0221345994
 20
138.0954435082
 30
0.0
 11
881.0168207429
 21
138.1304275243
 31
0.0
  0
LINE
  5
20B
330
1F
100
AcDbEntity
  8
FORMAT
100
AcDbLine
 10
881.0168207429
 20
138.1304275243
 30
0.0
 11
881.0108425653
 21
138.1631964247
 31
0.0
  0
LINE
  5
20C
330
1F
100
AcDbEntity
  8
FORMAT
100
AcDbLine
 10
881.0108425653
 20
138.1631964247
 30
0.0
 11
881.0042000667
 21
138.1935301933
 31
0.0
  0
LINE
  5
20D
330
1F
100
AcDbEntity
  8
FORMAT
100
AcDbLine
 10
881.0042000667
 20
138.1935301933
 30
0.0
 11
880.9966725187
 21
138.2214288299
 31
0.0
  0
LINE
  5
20E
330
1F
100
AcDbEntity
  8
FORMAT
100
AcDbLine
 10
880.9966725187
 20
138.2214288299
 30
0.0
 11
880.9884799376
 21
138.2468916227
 31
0.0
  0
LINE
  5
20F
330
1F
100
AcDbEntity
  8
FORMAT
100
AcDbLine
 10
880.9884799376
 20
138.2468916227
 30
0.0
 11
880.9796230354
 21
138.2699185716
 31
0.0
  0
LINE
  5
210
330
1F
100
AcDbEntity
  8
FORMAT
100
AcDbLine
 10
880.9796230354
 20
138.2699185716
 30
0.0
 11
880.9698810838
 21
138.2907318289
 31
0.0
  0
LINE
  5
211
330
1F
100
AcDbEntity
  8
FORMAT
100
AcDbLine
 10
880.9698810838
 20
138.2907318289
 30
0.0
 11
880.9594748111
 21
138.308887802
 31
0.0
  0
LINE
  5
212
330
1F
100
AcDbEntity
  8
FORMAT
100
AcDbLine
 10
880.9594748111
 20
138.308887802
 30
0.0
 11
880.9501750282
 21
138.3230578486
 31
0.0
  0
LINE
  5
213
330
1F
100
AcDbEntity
  8
FORMAT
100
AcDbLine
 10
880.9501750282
 20
138.3230578486
 30
0.0
 11
880.9373329117
 21
138.340107332
 31
0.0
  0
LINE
  5
214
330
1F
100
AcDbEntity
  8
FORMAT
100
AcDbLine
 10
880.9373329117
 20
138.340107332
 30
0.0
 11
880.9227199843
 21
138.3578204243
 31
0.0
  0
LINE
  5
215
330
1F
100
AcDbEntity
  8
FORMAT
100
AcDbLine
 10
880.9227199843
 20
138.3578204243
 30
0.0
 11
880.906334822
 21
138.3759763974
 31
0.0
  0
LINE
  5
216
330
1F
100
AcDbEntity
  8
FORMAT
100
AcDbLine
 10
880.906334822
 20
138.3759763974
 30
0.0
 11
880.8879574086
 21
138.3947966915
 31
0.0
  0
LINE
  5
217
330
1F
100
AcDbEntity
  8
FORMAT
100
AcDbLine
 10
880.8879574086
 20
138.3947966915
 30
0.0
 11
880.8678091844
 21
138.4140591543
 31
0.0
  0
LINE
  5
218
330
1F
100
AcDbEntity
  8
G__TOTO
  6
PHANTOM
370
     0
100
AcDbLine
 10
213.0533068477
 20
595.8757618151
 30
0.0
 11
213.0533068477
 21
215.2757618151
 31
0.0
  0
LINE
  5
219
330
1F
100
AcDbEntity
  8
G__TOTO
  6
PHANTOM
370
     0
100
AcDbLine
 10
238.4533068477
 20
189.8757618151
 30
0.0
 11
670.0533068477
 21
189.8757618151
 31
0.0
  0
LINE
  5
21A
330
1F
100
AcDbEntity
  8
G__TOTO
  6
PHANTOM
370
     0
100
AcDbLine
 10
695.4533068477
 20
595.8757618151
 30
0.0
 11
695.4533068477
 21
215.2757618151
 31
0.0
  0
LINE
  5
21B
330
1F
100
AcDbEntity
  8
G__TOTO
  6
PHANTOM
370
     0
100
AcDbLine
 10
238.4533068477
 20
621.2757618151
 30
0.0
 11
670.0533068477
 21
621.2757618151
 31
0.0
  0
LINE
  5
21C
330
1F
100
AcDbEntity
  8
FORMAT
100
AcDbLine
 10
880.8678091844
 20
138.4140591543
 30
0.0
 11
880.8456672849
 21
138.4337652099
 31
0.0
  0
LINE
  5
21D
330
1F
100
AcDbEntity
  8
FORMAT
100
AcDbLine
 10
880.8456672849
 20
138.4337652099
 30
0.0
 11
880.8217545746
 21
138.4541355865
 31
0.0
  0
LINE
  5
21E
330
1F
100
AcDbEntity
  8
FORMAT
100
AcDbLine
 10
880.8217545746
 20
138.4541355865
 30
0.0
 11
880.7958489011
 21
138.4751695722
 31
0.0
  0
LINE
  5
21F
330
1F
100
AcDbEntity
  8
FORMAT
100
AcDbLine
 10
880.7958489011
 20
138.4751695722
 30
0.0
 11
880.7681724168
 21
138.4964257102
 31
0.0
  0
CIRCLE
  5
220
330
1F
100
AcDbEntity
  8
G__TOTO
100
AcDbCircle
 10
454.2533068477
 20
405.5757618151
 30
0.0
 40
22.00000000000006
  0
CIRCLE
  5
221
330
1F
100
AcDbEntity
  8
G__TOTO
100
AcDbCircle
 10
606.6533068477
 20
634.1757618151
 30
0.0
 40
0.0500000000000788
  0
ARC
  5
222
330
1F
100
AcDbEntity
  8
FORMAT
100
AcDbCircle
 10
792.2488779583
 20
150.2308908294
 30
0.0
 40
4.070437741199875
100
AcDbArc
 50
359.9879402697
 51
90.0000000001
  0
ARC
  5
223
330
1F
100
AcDbEntity
  8
FORMAT
100
AcDbCircle
 10
783.7148463587
 20
150.2308908294
 30
0.0
 40
4.070437741203286
100
AcDbArc
 50
90.0
 51
179.9879402696
  0
ARC
  5
224
330
1F
100
AcDbEntity
  8
FORMAT
100
AcDbCircle
 10
784.0175208086
 20
140.6582683457
 30
0.0
 40
1.516173115427796
100
AcDbArc
 50
270.0
 51
359.987524521
  0
ARC
  5
225
330
1F
100
AcDbEntity
  8
FORMAT
100
AcDbCircle
 10
791.942085784
 20
140.6582683457
 30
0.0
 40
1.51617311543223
100
AcDbArc
 50
179.9875245209
 51
270.0000000001
  0
ARC
  5
226
330
1F
100
AcDbEntity
  8
FORMAT
100
AcDbCircle
 10
843.7993470265
 20
150.2308908294
 30
0.0
 40
4.070437741199214
100
AcDbArc
 50
359.9879402697
 51
90.0000000001
  0
ARC
  5
227
330
1F
100
AcDbEntity
  8
FORMAT
100
AcDbCircle
 10
835.2653154269
 20
150.2308908294
 30
0.0
 40
4.070437741203286
100
AcDbArc
 50
90.0
 51
179.9879402696
  0
ARC
  5
228
330
1F
100
AcDbEntity
  8
FORMAT
100
AcDbCircle
 10
835.5679898768
 20
140.6582683457
 30
0.0
 40
1.516173115425976
100
AcDbArc
 50
270.0
 51
359.9875245211
  0
ARC
  5
229
330
1F
100
AcDbEntity
  8
FORMAT
100
AcDbCircle
 10
843.4925548521
 20
140.6582683457
 30
0.0
 40
1.51617311543223
100
AcDbArc
 50
179.9875245209
 51
270.0000000001
  0
ARC
  5
22A
330
1F
100
AcDbEntity
  8
FORMAT
100
AcDbCircle
 10
813.7561038557
 20
144.0298254866
 30
0.0
 40
5.576627171136861
100
AcDbArc
 50
199.120265
 51
340.867675
  0
ARC
  5
22B
330
1F
100
AcDbEntity
  8
FORMAT
100
AcDbCircle
 10
806.004963565
 20
146.7187964266
 30
0.0
 40
13.7809394836542
100
AcDbArc
 50
340.8676765204
 51
19.193527
  0
ARC
  5
22C
330
1F
100
AcDbEntity
  8
FORMAT
100
AcDbCircle
 10
813.7566704797
 20
149.4172443923
 30
0.0
 40
5.572981058109158
100
AcDbArc
 50
19.1935277085
 51
160.7944202524
  0
ARC
  5
22D
330
1F
100
AcDbEntity
  8
FORMAT
100
AcDbCircle
 10
821.50780916
 20
146.7171659085
 30
0.0
 40
13.78093906600769
100
AcDbArc
 50
160.7944202524
 51
199.1202687174
  0
ARC
  5
22E
330
1F
100
AcDbEntity
  8
FORMAT
100
AcDbCircle
 10
812.4817087557
 20
146.7181150168
 30
0.0
 40
10.33595430364064
100
AcDbArc
 50
142.997119
 51
216.437586
  0
ARC
  5
22F
330
1F
100
AcDbEntity
  8
FORMAT
100
AcDbCircle
 10
813.7567141991
 20
148.4444543012
 30
0.0
 40
12.40314521073148
100
AcDbArc
 50
219.3563212715
 51
320.61032
  0
ARC
  5
230
330
1F
100
AcDbEntity
  8
FORMAT
100
AcDbCircle
 10
815.0310643968
 20
146.7178466046
 30
0.0
 40
10.3359543332728
100
AcDbArc
 50
323.5257904376
 51
36.9655204161
  0
ARC
  5
231
330
1F
100
AcDbEntity
  8
FORMAT
100
AcDbCircle
 10
813.7560604637
 20
144.998969415
 30
0.0
 40
12.40314518251892
100
AcDbArc
 50
39.769147454
 51
140.1968750971
  0
ARC
  5
232
330
1F
100
AcDbEntity
  8
FORMAT
100
AcDbCircle
 10
864.0312192309
 20
146.7181150168
 30
0.0
 40
10.33595430364062
100
AcDbArc
 50
142.997119
 51
216.437586
  0
ARC
  5
233
330
1F
100
AcDbEntity
  8
FORMAT
100
AcDbCircle
 10
865.3062246743
 20
148.4444543012
 30
0.0
 40
12.40314521073019
100
AcDbArc
 50
219.3563212715
 51
320.61032
  0
ARC
  5
234
330
1F
100
AcDbEntity
  8
FORMAT
100
AcDbCircle
 10
866.5805748719
 20
146.7178466046
 30
0.0
 40
10.33595433327253
100
AcDbArc
 50
323.5257904376
 51
36.9655204161
  0
ARC
  5
235
330
1F
100
AcDbEntity
  8
FORMAT
100
AcDbCircle
 10
865.3055709389
 20
144.998969415
 30
0.0
 40
12.40314518252088
100
AcDbArc
 50
39.769147454
 51
140.1968750971
  0
ARC
  5
236
330
1F
100
AcDbEntity
  8
FORMAT
100
AcDbCircle
 10
865.3056143308
 20
144.0298254866
 30
0.0
 40
5.576627171138172
100
AcDbArc
 50
199.120265
 51
340.867675
  0
ARC
  5
237
330
1F
100
AcDbEntity
  8
FORMAT
100
AcDbCircle
 10
857.5544740402
 20
146.7187964266
 30
0.0
 40
13.78093948365391
100
AcDbArc
 50
340.8676765204
 51
19.193527
  0
ARC
  5
238
330
1F
100
AcDbEntity
  8
FORMAT
100
AcDbCircle
 10
865.3061809549
 20
149.4172443923
 30
0.0
 40
5.572981058110471
100
AcDbArc
 50
19.1935277085
 51
160.7944202524
  0
ARC
  5
239
330
1F
100
AcDbEntity
  8
FORMAT
100
AcDbCircle
 10
873.0573196351
 20
146.7171659085
 30
0.0
 40
13.78093906600631
100
AcDbArc
 50
160.7944202524
 51
199.1202687174
  0
ARC
  5
23A
330
1F
100
AcDbEntity
  8
G__TOTO
  6
PHANTOM
370
     0
100
AcDbCircle
 10
238.4533068477
 20
215.2757618151
 30
0.0
 40
25.40000000000001
100
AcDbArc
 50
180.0
 51
270.0
  0
ARC
  5
23B
330
1F
100
AcDbEntity
  8
G__TOTO
  6
PHANTOM
370
     0
100
AcDbCircle
 10
670.0533068477
 20
215.2757618151
 30
0.0
 40
25.40000000000009
100
AcDbArc
 50
270.0
 51
0.0
  0
ARC
  5
23C
330
1F
100
AcDbEntity
  8
G__TOTO
  6
PHANTOM
370
     0
100
AcDbCircle
 10
670.0533068477
 20
595.8757618151
 30
0.0
 40
25.40000000000009
100
AcDbArc
 50
0.0
 51
90.0
  0
ARC
  5
23D
330
1F
100
AcDbEntity
  8
G__TOTO
  6
PHANTOM
370
     0
100
AcDbCircle
 10
238.4533068477
 20
595.8757618151
 30
0.0
 40
25.40000000000001
100
AcDbArc
 50
90.0
 51
180.0
  0
CIRCLE
  5
23E
330
1F
100
AcDbEntity
  8
FORMAT
100
AcDbCircle
 10
879.6939403316
 20
138.4336363331
 30
0.0
 40
2.492094032515222
  0
CIRCLE
  5
23F
330
1F
100
AcDbEntity
  8
FORMAT
100
AcDbCircle
 10
879.6939403316
 20
138.4336363331
 30
0.0
 40
2.848107465732479
  0
ELLIPSE
  5
240
330
1F
100
AcDbEntity
  8
G__TOTO
100
AcDbEllipse
 10
740.3198229357
 20
52.686944536
 30
0.0
 11
22.2928954327507
 21
-0.02871326882658565
 31
0.0
210
0.0
220
0.0
230
1.0
 40
0.2910705769
 41
0.0
 42
6.283185307179586
  0
INSERT
  5
241
330
1F
100
AcDbEntity
  8
G__TOTO
100
AcDbBlockReference
  2
template line scale
 10
-279.2778184426
 20
283.8003174295
 30
0.0
  0
HATCH
  5
242
330
1F
100
AcDbEntity
  8
G__TOTO
100
AcDbHatch
 10
0.0
 20
0.0
 30
0.0
210
0.0
220
0.0
230
1.0
  2
SOLID
 70
     1
 71
     0
 91
        1
 92
        0
 93
       20
 72
     1
 10
794.525494547722
 20
139.1420952302927
 11
791.9420857839565
 21
139.1420952302927
 72
     2
 10
791.942085783953
 20
140.6582683457249
 40
1.516173115432181
 50
89.99999999986683
 51
180.0124754791133
 73
     0
 72
     1
 10
790.4259127044616
 20
140.6585984745066
 11
790.4288832478159
 21
154.3013285705754
 72
     1
 10
790.4288832478159
 20
154.3013285705754
 11
792.2488779582796
 21
154.3013285705754
 72
     2
 10
792.2488779582852
 20
150.2308908293756
 40
4.070437741199853
 50
269.9999999999224
 51
360.0120597303044
 73
     0
 72
     1
 10
796.3193156093195
 20
150.2300340755024
 11
796.3190848824898
 21
149.1338509079545
 72
     1
 10
796.3190848824898
 20
149.1338509079545
 11
798.7309741620487
 21
149.1338509079545
 72
     1
 10
798.7309741620487
 20
149.1338509079545
 11
798.7325694823778
 21
156.7132177966968
 72
     1
 10
798.7325694823778
 20
156.7132177966968
 11
777.2329251077952
 21
156.7132177966968
 72
     1
 10
777.2329251077952
 20
156.7132177966968
 11
777.2327680825651
 21
149.1338509079545
 72
     1
 10
777.2327680825651
 20
149.1338509079545
 11
779.6441776202139
 21
149.1338509079545
 72
     1
 10
779.6441776202139
 20
149.1338509079545
 11
779.6444087076952
 21
150.2317475832393
 72
     2
 10
783.714846358733
 20
150.2308908293626
 40
4.070437741202961
 50
180.0120597303548
 51
269.9999999999992
 73
     0
 72
     1
 10
783.7148463587329
 20
154.3013285705652
 11
785.5366645751933
 21
154.3013285705652
 72
     1
 10
785.5366645751933
 20
154.3013285705652
 11
785.53369388808
 21
140.6579382169361
 72
     2
 10
784.0175208085931
 20
140.6582683457138
 40
1.51617311542774
 50
0.0124754789664517
 51
90.0
 73
     0
 72
     1
 10
784.0175208085931
 20
139.1420952302861
 11
781.4334517872475
 21
139.1420952302861
 72
     1
 10
781.4334517872475
 20
139.1420952302861
 11
781.4329266268576
 21
136.7302060041623
 72
     1
 10
781.4329266268576
 20
136.7302060041623
 11
794.5249693873197
 21
136.7302060041623
 72
     1
 10
794.5249693873197
 20
136.7302060041623
 11
794.525494547722
 21
139.1420952302927
 97
        0
 75
     0
 76
     1
 98
        1
 10
0.0
 20
0.0
  0
HATCH
  5
243
330
1F
100
AcDbEntity
  8
G__TOTO
100
AcDbHatch
 10
0.0
 20
0.0
 30
0.0
210
0.0
220
0.0
230
1.0
  2
SOLID
 70
     1
 71
     0
 91
        2
 92
        0
 93
        4
 72
     2
 10
815.0310643967796
 20
146.7178466045602
 40
10.33595433327268
 50
323.5257904376364
 51
396.9655204161059
 73
     1
 72
     2
 10
813.7560604637127
 20
144.9989694150424
 40
12.40314518251883
 50
39.76914745396156
 51
140.1968750970755
 73
     1
 72
     2
 10
812.4817087557127
 20
146.7181150168437
 40
10.3359543036406
 50
142.9971189999965
 51
216.4375859999899
 73
     1
 72
     2
 10
813.7567141991075
 20
148.4444543011552
 40
12.40314521073146
 50
219.3563212714838
 51
320.6103199999976
 73
     1
 97
        0
 92
        0
 93
        4
 72
     2
 10
821.5078091599846
 20
146.7171659085105
 40
13.7809390660076
 50
160.8797312826041
 51
199.2055797476046
 73
     0
 72
     2
 10
813.756670479722
 20
149.4172443923272
 40
5.572981058108758
 50
199.2055797476048
 51
340.8064722915087
 73
     0
 72
     2
 10
806.0049635650167
 20
146.7187964265537
 40
13.7809394836542
 50
340.8064730000006
 51
379.1323234795634
 73
     0
 72
     2
 10
813.7561038556659
 20
144.0298254865844
 40
5.576627171136787
 50
19.13232499998156
 51
160.8797349999764
 73
     0
 97
        0
 75
     0
 76
     1
 98
        1
 10
0.0
 20
0.0
  0
HATCH
  5
244
330
1F
100
AcDbEntity
  8
G__TOTO
100
AcDbHatch
 10
0.0
 20
0.0
 30
0.0
210
0.0
220
0.0
230
1.0
  2
SOLID
 70
     1
 71
     0
 91
        1
 92
        0
 93
       20
 72
     1
 10
846.0759636159171
 20
139.1420952302912
 11
843.4925548521514
 21
139.1420952302911
 72
     2
 10
843.492554852148
 20
140.6582683457233
 40
1.516173115432181
 50
89.99999999987112
 51
180.0124754791187
 73
     0
 72
     1
 10
841.9763817726566
 20
140.658598474505
 11
841.979352316011
 21
154.3013285705737
 72
     1
 10
841.979352316011
 20
154.3013285705737
 11
843.7993470264753
 21
154.3013285705737
 72
     2
 10
843.7993470264843
 20
150.2308908293745
 40
4.070437741197355
 50
269.9999999998744
 51
360.0120597303044
 73
     0
 72
     1
 10
847.8697846775142
 20
150.2300340755013
 11
847.8695539506846
 21
149.1338509079545
 72
     1
 10
847.8695539506846
 20
149.1338509079545
 11
850.2814432302453
 21
149.1338509079545
 72
     1
 10
850.2814432302453
 20
149.1338509079545
 11
850.2830385505725
 21
156.7132177966967
 72
     1
 10
850.2830385505725
 20
156.7132177966967
 11
828.7833941759899
 21
156.7132177966968
 72
     1
 10
828.7833941759899
 20
156.7132177966968
 11
828.783237150774
 21
149.1338509079545
 72
     1
 10
828.783237150774
 20
149.1338509079545
 11
831.1946466884086
 21
149.1338509079545
 72
     1
 10
831.1946466884086
 20
149.1338509079545
 11
831.1948777758901
 21
150.2317475832393
 72
     2
 10
835.2653154269277
 20
150.2308908293626
 40
4.070437741202961
 50
180.0120597303548
 51
269.9999999999992
 73
     0
 72
     1
 10
835.2653154269276
 20
154.3013285705652
 11
837.0871336433905
 21
154.3013285705652
 72
     1
 10
837.0871336433905
 20
154.3013285705652
 11
837.0841629562736
 21
140.6579382169354
 72
     2
 10
835.5679898767885
 20
140.6582683457114
 40
1.516173115425963
 50
0.0124754788988016
 51
90.0
 73
     0
 72
     1
 10
835.5679898767885
 20
139.1420952302854
 11
832.9839208554406
 21
139.1420952302854
 72
     1
 10
832.9839208554406
 20
139.1420952302854
 11
832.9833956950544
 21
136.7302060041605
 72
     1
 10
832.9833956950544
 20
136.7302060041605
 11
846.0754384555167
 21
136.7302060041606
 72
     1
 10
846.0754384555167
 20
136.7302060041606
 11
846.0759636159171
 21
139.1420952302912
 97
        0
 75
     0
 76
     1
 98
        1
 10
0.0
 20
0.0
  0
HATCH
  5
245
330
1F
100
AcDbEntity
  8
G__TOTO
100
AcDbHatch
 10
0.0
 20
0.0
 30
0.0
210
0.0
220
0.0
230
1.0
  2
SOLID
 70
     1
 71
     0
 91
        2
 92
        0
 93
        4
 72
     2
 10
866.5805748719276
 20
146.7178466045647
 40
10.3359543332725
 50
323.5257904376043
 51
396.9655204161135
 73
     1
 72
     2
 10
865.3055709388625
 20
144.9989694150415
 40
12.40314518252078
 50
39.76914745399193
 51
140.1968750970778
 73
     1
 72
     2
 10
864.0312192308606
 20
146.7181150168437
 40
10.3359543036406
 50
142.9971189999965
 51
216.4375859999961
 73
     1
 72
     2
 10
865.3062246742537
 20
148.4444543011552
 40
12.40314521073011
 50
219.356321271494
 51
320.6103199999921
 73
     1
 97
        0
 92
        0
 93
        4
 72
     2
 10
873.0573196351295
 20
146.717165908511
 40
13.78093906600625
 50
160.8797312826038
 51
199.2055797476086
 73
     0
 72
     2
 10
865.30618095487
 20
149.4172443923272
 40
5.572981058110456
 50
199.2055797476084
 51
340.8064722915091
 73
     0
 72
     2
 10
857.5544740401665
 20
146.7187964265537
 40
13.78093948365391
 50
340.8064729999984
 51
379.1323234795685
 73
     0
 72
     2
 10
865.3056143308139
 20
144.0298254865844
 40
5.576627171138178
 50
19.13232499998831
 51
160.879734999991
 73
     0
 97
        0
 75
     0
 76
     1
 98
        1
 10
0.0
 20
0.0
  0
POINT
  5
246
330
1F
100
AcDbEntity
  8
G__TOTO
100
AcDbPoint
 10
606.6533068477
 20
634.1757618151
 30
0.0
  0
DIMENSION
  5
247
330
1F
100
AcDbEntity
  8
G__TOTO
100
AcDbDimension
  2
*D5
 10
602.6778601149
 20
636.7982090548
 30
0.0
 11
737.7981163809
 21
571.4709474391
 31
0.0
 70
   163
  1
<>
 71
     1
 42
-1.0
  3
SLDDIMSTYLE0
100
AcDbDiametricDimension
 15
610.6287535805
 25
631.5533145755
 35
0.0
 40
0.0
  0
INSERT
  5
262
330
1F
100
AcDbEntity
  8
FORMAT
100
AcDbBlockReference
  2
SW_NOTE_2
 10
712.9651129228
 20
56.1976223555
 30
0.0
  0
INSERT
  5
269
330
1F
100
AcDbEntity
  8
G__TOTO
100
AcDbBlockReference
  2
SW_NOTE_3
 10
533.4043630758
 20
119.7285961618
 30
0.0
  0
LEADER
  5
26B
330
1F
100
AcDbEntity
  8
G__TOTO
100
AcDbLeader
  3
SLDDIMSTYLE1
 76
     2
 10
603.0150754603
 20
173.9025422295
 30
0.0
 10
533.4043630758
 20
119.7285961618
 30
0.0
  0
INSERT
  5
272
330
1F
100
AcDbEntity
  8
G__TOTO
100
AcDbBlockReference
  2
SW_NOTE_4
 10
174.1983766351
 20
264.157911416
 30
0.0
  0
LEADER
  5
273
330
1F
100
AcDbEntity
  8
G__TOTO
100
AcDbLeader
  3
SLDDIMSTYLE1
 76
     2
 10
213.0533068477
 20
239.6297099454
 30
0.0
 10
174.1983766351
 20
264.157911416
 30
0.0
  0
INSERT
  5
27A
330
1F
100
AcDbEntity
  8
G__TOTO
100
AcDbBlockReference
  2
SW_NOTE_5
 10
204.8517054487
 20
411.0738809076
 30
0.0
  0
LEADER
  5
27B
330
1F
100
AcDbEntity
  8
G__TOTO
100
AcDbLeader
  3
SLDDIMSTYLE1
 76
     2
 10
246.0033068477
 20
374.3141652854
 30
0.0
 10
204.8517054487
 20
411.0738809076
 30
0.0
  0
INSERT
  5
282
330
1F
100
AcDbEntity
  8
G__TOTO
100
AcDbBlockReference
  2
SW_NOTE_6
 10
726.0262441786
 20
603.9911436948
 30
0.0
  0
INSERT
  5
28A
330
1F
100
AcDbEntity
  8
G__TOTO
100
AcDbBlockReference
  2
SW_NOTE_7
 10
753.4852739354
 20
580.9120903038
 30
0.0
  0
INSERT
  5
291
330
1F
100
AcDbEntity
  8
G__TOTO
100
AcDbBlockReference
  2
SW_NOTE_8
 10
725.1576553545
 20
537.3844702135
 30
0.0
  0
MTEXT
  5
292
330
1F
100
AcDbEntity
  8
G__TOTO
100
AcDbMText
 10
375.4685601408
 20
34.1399068309
 30
0.0
 40
7.4083333333
 41
0.0
 71
     1
 72
     1
  1
PART NUMBER VISIBLE AFTER FINAL FOLD
  7
SLDTEXTSTYLE2
 73
     1
 44
1.0
  0
INSERT
  5
29E
330
1F
100
AcDbEntity
  8
G__TOTO
100
AcDbBlockReference
  2
SW_CENTERMARKSYMBOL_0
 10
301.8533068477
 20
634.1757618151
 30
0.0
  0
INSERT
  5
2AA
330
1F
100
AcDbEntity
  8
G__TOTO
100
AcDbBlockReference
  2
SW_CENTERMARKSYMBOL_1
 10
301.8533068477
 20
176.9757618151
 30
0.0
  0
INSERT
  5
2B6
330
1F
100
AcDbEntity
  8
G__TOTO
100
AcDbBlockReference
  2
SW_CENTERMARKSYMBOL_2
 10
606.6533068477
 20
176.9757618151
 30
0.0
  0
INSERT
  5
2C2
330
1F
100
AcDbEntity
  8
G__TOTO
100
AcDbBlockReference
  2
SW_CENTERMARKSYMBOL_3
 10
606.6533068477
 20
634.1757618151
 30
0.0
  0
ENDSEC
  0
SECTION
  2
OBJECTS
  0
DICTIONARY
  5
C
330
0
100
AcDbDictionary
281
     1
  3
ACAD_GROUP
350
D
  3
ACAD_LAYOUT
350
1A
  3
ACAD_MLEADERSTYLE
350
2C6
  3
ACAD_MLINESTYLE
350
17
  3
ACAD_PLOTSETTINGS
350
19
  3
ACAD_PLOTSTYLENAME
350
E
  3
ACAD_SCALELIST
350
3B
  3
ACAD_TABLESTYLE
350
2C5
  3
ACAD_VISUALSTYLE
350
2A
  3
AcDbVariableDictionary
350
2C3
  0
DICTIONARY
  5
D
102
{ACAD_REACTORS
330
C
102
}
330
C
100
AcDbDictionary
281
     1
  0
DICTIONARY
  5
1A
102
{ACAD_REACTORS
330
C
102
}
330
C
100
AcDbDictionary
281
     1
  3
Layout1
350
1E
  3
Layout2
350
26
  3
Model
350
22
  0
DICTIONARY
  5
2C6
102
{ACAD_REACTORS
330
C
102
}
330
C
100
AcDbDictionary
281
     1
  0
DICTIONARY
  5
17
102
{ACAD_REACTORS
330
C
102
}
330
C
100
AcDbDictionary
281
     1
  3
Standard
350
18
  0
DICTIONARY
  5
19
102
{ACAD_REACTORS
330
C
102
}
330
C
100
AcDbDictionary
281
     1
  0
ACDBDICTIONARYWDFLT
  5
E
102
{ACAD_REACTORS
330
C
102
}
330
C
100
AcDbDictionary
281
     1
  3
Normal
350
F
100
AcDbDictionaryWithDefault
340
F
  0
DICTIONARY
  5
3B
102
{ACAD_REACTORS
330
C
102
}
330
C
100
AcDbDictionary
281
     1
  3
A0
350
3C
  3
A1
350
3D
  3
A2
350
3E
  3
A3
350
3F
  3
A4
350
40
  3
A5
350
41
  3
A6
350
42
  3
A7
350
43
  3
A8
350
44
  3
A9
350
45
  3
B0
350
46
  3
B1
350
47
  3
B2
350
48
  3
B3
350
49
  3
B4
350
4A
  3
B5
350
4B
  3
B6
350
4C
  3
B7
350
4D
  3
B8
350
4E
  3
B9
350
4F
  3
C0
350
50
  3
C1
350
51
  3
C2
350
52
  3
C3
350
53
  3
C4
350
54
  3
C5
350
55
  3
C6
350
56
  3
C7
350
57
  3
C8
350
58
  3
C9
350
59
  3
D0
350
5A
  3
D1
350
5B
  3
D2
350
5C
  0
DICTIONARY
  5
2C5
102
{ACAD_REACTORS
330
C
102
}
330
C
100
AcDbDictionary
281
     1
  0
DICTIONARY
  5
2A
102
{ACAD_REACTORS
330
C
102
}
330
C
100
AcDbDictionary
281
     1
  3
2dWireframe
350
2F
  3
3D Hidden
350
31
  3
3dWireframe
350
30
  3
Basic
350
32
  3
Brighten
350
36
  3
ColorChange
350
3A
  3
Conceptual
350
34
  3
Dim
350
35
  3
Facepattern
350
39
  3
Flat
350
2B
  3
FlatWithEdges
350
2C
  3
Gouraud
350
2D
  3
GouraudWithEdges
350
2E
  3
Linepattern
350
38
  3
Realistic
350
33
  3
Thicken
350
37
  0
DICTIONARY
  5
2C3
102
{ACAD_REACTORS
330
C
102
}
330
C
100
AcDbDictionary
281
     1
  3
CANNOSCALE
350
2C4
  3
PSOLHEIGHT
350
2C8
  3
PSOLWIDTH
350
2C7
  0
LAYOUT
  5
1E
102
{ACAD_REACTORS
330
1A
102
}
330
1A
100
AcDbPlotSettings
  1

  2
none_device
  4

  6

 40
0.0
 41
0.0
 42
0.0
 43
0.0
 44
0.0
 45
0.0
 46
0.0
 47
0.0
 48
0.0
 49
0.0
140
0.0
141
0.0
142
1.0
143
1.0
 70
   688
 72
     0
 73
     0
 74
     5
  7

 75
    16
147
1.0
148
0.0
149
0.0
100
AcDbLayout
  1
Layout1
 70
     1
 71
     1
 10
0.0
 20
0.0
 11
420.0
 21
297.0
 12
0.0
 22
0.0
 32
0.0
 14
1.0000000000E+20
 24
1.0000000000E+20
 34
1.0000000000E+20
 15
-1.0000000000E+20
 25
-1.0000000000E+20
 35
-1.0000000000E+20
146
0.0
 13
0.0
 23
0.0
 33
0.0
 16
1.0
 26
0.0
 36
0.0
 17
0.0
 27
1.0
 37
0.0
 76
     0
330
1B
  0
LAYOUT
  5
26
102
{ACAD_REACTORS
330
1A
102
}
330
1A
100
AcDbPlotSettings
  1

  2
none_device
  4

  6

 40
0.0
 41
0.0
 42
0.0
 43
0.0
 44
0.0
 45
0.0
 46
0.0
 47
0.0
 48
0.0
 49
0.0
140
0.0
141
0.0
142
1.0
143
1.0
 70
   688
 72
     0
 73
     0
 74
     5
  7

 75
    16
147
1.0
148
0.0
149
0.0
100
AcDbLayout
  1
Layout2
 70
     1
 71
     2
 10
0.0
 20
0.0
 11
0.0
 21
0.0
 12
0.0
 22
0.0
 32
0.0
 14
0.0
 24
0.0
 34
0.0
 15
0.0
 25
0.0
 35
0.0
146
0.0
 13
0.0
 23
0.0
 33
0.0
 16
1.0
 26
0.0
 36
0.0
 17
0.0
 27
1.0
 37
0.0
 76
     0
330
23
  0
LAYOUT
  5
22
102
{ACAD_REACTORS
330
1A
102
}
330
1A
100
AcDbPlotSettings
  1

  2
none_device
  4

  6

 40
0.0
 41
0.0
 42
0.0
 43
0.0
 44
0.0
 45
0.0
 46
0.0
 47
0.0
 48
0.0
 49
0.0
140
0.0
141
0.0
142
1.0
143
1.0
 70
  1712
 72
     0
 73
     0
 74
     0
  7

 75
     0
147
1.0
148
0.0
149
0.0
100
AcDbLayout
  1
Model
 70
     1
 71
     0
 10
0.0
 20
0.0
 11
909.0
 21
680.0
 12
0.0
 22
0.0
 32
0.0
 14
0.0
 24
0.0
 34
0.0
 15
909.0
 25
680.0
 35
0.0
146
0.0
 13
0.0
 23
0.0
 33
0.0
 16
1.0
 26
0.0
 36
0.0
 17
0.0
 27
1.0
 37
0.0
 76
     0
330
1F
331
29
  0
MLINESTYLE
  5
18
102
{ACAD_REACTORS
330
17
102
}
330
17
100
AcDbMlineStyle
  2
Standard
 70
     0
  3

 62
   256
 51
90.0
 52
90.0
 71
     2
 49
0.5
 62
   256
  6
BYLAYER
 49
-0.5
 62
   256
  6
BYLAYER
  0
ACDBPLACEHOLDER
  5
F
102
{ACAD_REACTORS
330
E
102
}
330
E
  0
SCALE
  5
3C
102
{ACAD_REACTORS
330
3B
102
}
330
3B
100
AcDbScale
 70
     0
300
1:1
140
1.0
141
1.0
290
     1
  0
SCALE
  5
3D
102
{ACAD_REACTORS
330
3B
102
}
330
3B
100
AcDbScale
 70
     0
300
1:2
140
1.0
141
2.0
290
     0
  0
SCALE
  5
3E
102
{ACAD_REACTORS
330
3B
102
}
330
3B
100
AcDbScale
 70
     0
300
1:4
140
1.0
141
4.0
290
     0
  0
SCALE
  5
3F
102
{ACAD_REACTORS
330
3B
102
}
330
3B
100
AcDbScale
 70
     0
300
1:5
140
1.0
141
5.0
290
     0
  0
SCALE
  5
40
102
{ACAD_REACTORS
330
3B
102
}
330
3B
100
AcDbScale
 70
     0
300
1:8
140
1.0
141
8.0
290
     0
  0
SCALE
  5
41
102
{ACAD_REACTORS
330
3B
102
}
330
3B
100
AcDbScale
 70
     0
300
1:10
140
1.0
141
10.0
290
     0
  0
SCALE
  5
42
102
{ACAD_REACTORS
330
3B
102
}
330
3B
100
AcDbScale
 70
     0
300
1:16
140
1.0
141
16.0
290
     0
  0
SCALE
  5
43
102
{ACAD_REACTORS
330
3B
102
}
330
3B
100
AcDbScale
 70
     0
300
1:20
140
1.0
141
20.0
290
     0
  0
SCALE
  5
44
102
{ACAD_REACTORS
330
3B
102
}
330
3B
100
AcDbScale
 70
     0
300
1:30
140
1.0
141
30.0
290
     0
  0
SCALE
  5
45
102
{ACAD_REACTORS
330
3B
102
}
330
3B
100
AcDbScale
 70
     0
300
1:40
140
1.0
141
40.0
290
     0
  0
SCALE
  5
46
102
{ACAD_REACTORS
330
3B
102
}
330
3B
100
AcDbScale
 70
     0
300
1:50
140
1.0
141
50.0
290
     0
  0
SCALE
  5
47
102
{ACAD_REACTORS
330
3B
102
}
330
3B
100
AcDbScale
 70
     0
300
1:100
140
1.0
141
100.0
290
     0
  0
SCALE
  5
48
102
{ACAD_REACTORS
330
3B
102
}
330
3B
100
AcDbScale
 70
     0
300
2:1
140
2.0
141
1.0
290
     0
  0
SCALE
  5
49
102
{ACAD_REACTORS
330
3B
102
}
330
3B
100
AcDbScale
 70
     0
300
4:1
140
4.0
141
1.0
290
     0
  0
SCALE
  5
4A
102
{ACAD_REACTORS
330
3B
102
}
330
3B
100
AcDbScale
 70
     0
300
8:1
140
8.0
141
1.0
290
     0
  0
SCALE
  5
4B
102
{ACAD_REACTORS
330
3B
102
}
330
3B
100
AcDbScale
 70
     0
300
10:1
140
10.0
141
1.0
290
     0
  0
SCALE
  5
4C
102
{ACAD_REACTORS
330
3B
102
}
330
3B
100
AcDbScale
 70
     0
300
100:1
140
100.0
141
1.0
290
     0
  0
SCALE
  5
4D
102
{ACAD_REACTORS
330
3B
102
}
330
3B
100
AcDbScale
 70
     0
300
1/128" = 1'-0"
140
0.0078125
141
12.0
290
     0
  0
SCALE
  5
4E
102
{ACAD_REACTORS
330
3B
102
}
330
3B
100
AcDbScale
 70
     0
300
1/64" = 1'-0"
140
0.015625
141
12.0
290
     0
  0
SCALE
  5
4F
102
{ACAD_REACTORS
330
3B
102
}
330
3B
100
AcDbScale
 70
     0
300
1/32" = 1'-0"
140
0.03125
141
12.0
290
     0
  0
SCALE
  5
50
102
{ACAD_REACTORS
330
3B
102
}
330
3B
100
AcDbScale
 70
     0
300
1/16" = 1'-0"
140
0.0625
141
12.0
290
     0
  0
SCALE
  5
51
102
{ACAD_REACTORS
330
3B
102
}
330
3B
100
AcDbScale
 70
     0
300
3/32" = 1'-0"
140
0.09375
141
12.0
290
     0
  0
SCALE
  5
52
102
{ACAD_REACTORS
330
3B
102
}
330
3B
100
AcDbScale
 70
     0
300
1/8" = 1'-0"
140
0.125
141
12.0
290
     0
  0
SCALE
  5
53
102
{ACAD_REACTORS
330
3B
102
}
330
3B
100
AcDbScale
 70
     0
300
3/16" = 1'-0"
140
0.1875
141
12.0
290
     0
  0
SCALE
  5
54
102
{ACAD_REACTORS
330
3B
102
}
330
3B
100
AcDbScale
 70
     0
300
1/4" = 1'-0"
140
0.25
141
12.0
290
     0
  0
SCALE
  5
55
102
{ACAD_REACTORS
330
3B
102
}
330
3B
100
AcDbScale
 70
     0
300
3/8" = 1'-0"
140
0.375
141
12.0
290
     0
  0
SCALE
  5
56
102
{ACAD_REACTORS
330
3B
102
}
330
3B
100
AcDbScale
 70
     0
300
1/2" = 1'-0"
140
0.5
141
12.0
290
     0
  0
SCALE
  5
57
102
{ACAD_REACTORS
330
3B
102
}
330
3B
100
AcDbScale
 70
     0
300
3/4" = 1'-0"
140
0.75
141
12.0
290
     0
  0
SCALE
  5
58
102
{ACAD_REACTORS
330
3B
102
}
330
3B
100
AcDbScale
 70
     0
300
1" = 1'-0"
140
1.0
141
12.0
290
     0
  0
SCALE
  5
59
102
{ACAD_REACTORS
330
3B
102
}
330
3B
100
AcDbScale
 70
     0
300
1-1/2" = 1'-0"
140
1.5
141
12.0
290
     0
  0
SCALE
  5
5A
102
{ACAD_REACTORS
330
3B
102
}
330
3B
100
AcDbScale
 70
     0
300
3" = 1'-0"
140
3.0
141
12.0
290
     0
  0
SCALE
  5
5B
102
{ACAD_REACTORS
330
3B
102
}
330
3B
100
AcDbScale
 70
     0
300
6" = 1'-0"
140
6.0
141
12.0
290
     0
  0
SCALE
  5
5C
102
{ACAD_REACTORS
330
3B
102
}
330
3B
100
AcDbScale
 70
     0
300
1'-0" = 1'-0"
140
12.0
141
12.0
290
     0
  0
VISUALSTYLE
  5
2F
102
{ACAD_REACTORS
330
2A
102
}
330
2A
100
AcDbVisualStyle
  2
2dWireframe
 70
     4
 71
     0
 72
     2
 73
     0
 90
        0
 40
-0.6
 41
-30.0
 62
     5
 63
     7
 74
     1
 91
        4
 64
     7
 65
   257
 75
     1
175
     1
 42
1.0
 92
        0
 66
   257
 43
1.0
 76
     1
 77
     6
 78
     2
 67
     7
 79
     5
170
     0
171
     0
290
     0
174
     0
 93
        1
 44
0.0
173
     0
291
     0
 45
0.0
1001
ACAD
1000
AcDbSavedByObjectVersion
1070
     0
  0
VISUALSTYLE
  5
31
102
{ACAD_REACTORS
330
2A
102
}
330
2A
100
AcDbVisualStyle
  2
3D Hidden
 70
     6
 71
     1
 72
     2
 73
     2
 90
        0
 40
-0.6
 41
-30.0
 62
     5
 63
     7
 74
     2
 91
        2
 64
     7
 65
   257
 75
     2
175
     1
 42
40.0
 92
        0
 66
   257
 43
1.0
 76
     1
 77
     6
 78
     2
 67
     7
 79
     3
170
     0
171
     0
290
     0
174
     0
 93
        1
 44
0.0
173
     0
291
     0
 45
0.0
1001
ACAD
1000
AcDbSavedByObjectVersion
1070
     0
  0
VISUALSTYLE
  5
30
102
{ACAD_REACTORS
330
2A
102
}
330
2A
100
AcDbVisualStyle
  2
3dWireframe
 70
     5
 71
     0
 72
     2
 73
     0
 90
        0
 40
-0.6
 41
-30.0
 62
     5
 63
     7
 74
     1
 91
        4
 64
     7
 65
   257
 75
     1
175
     1
 42
1.0
 92
        0
 66
   257
 43
1.0
 76
     1
 77
     6
 78
     2
 67
     7
 79
     5
170
     0
171
     0
290
     0
174
     0
 93
        1
 44
0.0
173
     0
291
     0
 45
0.0
1001
ACAD
1000
AcDbSavedByObjectVersion
1070
     0
  0
VISUALSTYLE
  5
32
102
{ACAD_REACTORS
330
2A
102
}
330
2A
100
AcDbVisualStyle
  2
Basic
 70
     7
 71
     1
 72
     0
 73
     1
 90
        0
 40
-0.6
 41
-30.0
 62
     5
 63
     7
 74
     0
 91
        4
 64
     7
 65
   257
 75
     1
175
     1
 42
1.0
 92
        8
 66
     7
 43
1.0
 76
     1
 77
     6
 78
     2
 67
     7
 79
     5
170
     0
171
     0
290
     0
174
     0
 93
        1
 44
0.0
173
     0
291
     1
 45
0.0
1001
ACAD
1000
AcDbSavedByObjectVersion
1070
     0
  0
VISUALSTYLE
  5
36
102
{ACAD_REACTORS
330
2A
102
}
330
2A
100
AcDbVisualStyle
  2
Brighten
 70
    12
 71
     2
 72
     2
 73
     0
 90
        0
 40
-0.6
 41
-30.0
 62
     5
 63
     7
 74
     1
 91
        4
 64
     7
 65
   257
 75
     1
175
     1
 42
1.0
 92
        8
 66
     7
 43
1.0
 76
     1
 77
     6
 78
     2
 67
     7
 79
     5
170
     0
171
     0
290
     0
174
     0
 93
        1
 44
50.0
173
     0
291
     1
 45
0.0
1001
ACAD
1000
AcDbSavedByObjectVersion
1070
     0
  0
VISUALSTYLE
  5
3A
102
{ACAD_REACTORS
330
2A
102
}
330
2A
100
AcDbVisualStyle
  2
ColorChange
 70
    16
 71
     2
 72
     2
 73
     3
 90
        0
 40
-0.6
 41
-30.0
 62
     5
 63
     8
 74
     1
 91
        4
 64
     7
 65
   257
 75
     1
175
     1
 42
1.0
 92
        8
 66
     8
 43
1.0
 76
     1
 77
     6
 78
     2
 67
     7
 79
     5
170
     0
171
     0
290
     0
174
     0
 93
        1
 44
0.0
173
     0
291
     1
 45
0.0
1001
ACAD
1000
AcDbSavedByObjectVersion
1070
     0
  0
VISUALSTYLE
  5
34
102
{ACAD_REACTORS
330
2A
102
}
330
2A
100
AcDbVisualStyle
  2
Conceptual
 70
     9
 71
     3
 72
     2
 73
     0
 90
        0
 40
-0.6
 41
-30.0
 62
     5
 63
     7
 74
     2
 91
        2
 64
     7
 65
   257
 75
     1
175
     1
 42
40.0
 92
        8
 66
     7
 43
1.0
 76
     1
 77
     6
 78
     2
 67
     7
 79
     3
170
     0
171
     0
290
     0
174
     0
 93
        1
 44
0.0
173
     0
291
     0
 45
0.0
1001
ACAD
1000
AcDbSavedByObjectVersion
1070
     0
  0
VISUALSTYLE
  5
35
102
{ACAD_REACTORS
330
2A
102
}
330
2A
100
AcDbVisualStyle
  2
Dim
 70
    11
 71
     2
 72
     2
 73
     0
 90
        0
 40
-0.6
 41
-30.0
 62
     5
 63
     7
 74
     1
 91
        4
 64
     7
 65
   257
 75
     1
175
     1
 42
1.0
 92
        8
 66
     7
 43
1.0
 76
     1
 77
     6
 78
     2
 67
     7
 79
     5
170
     0
171
     0
290
     0
174
     0
 93
        1
 44
-50.0
173
     0
291
     1
 45
0.0
1001
ACAD
1000
AcDbSavedByObjectVersion
1070
     0
  0
VISUALSTYLE
  5
39
102
{ACAD_REACTORS
330
2A
102
}
330
2A
100
AcDbVisualStyle
  2
Facepattern
 70
    15
 71
     2
 72
     2
 73
     0
 90
        0
 40
-0.6
 41
-30.0
 62
     5
 63
     7
 74
     1
 91
        4
 64
     7
 65
   257
 75
     1
175
     1
 42
1.0
 92
        8
 66
     7
 43
1.0
 76
     1
 77
     6
 78
     2
 67
     7
 79
     5
170
     0
171
     0
290
     0
174
     0
 93
        1
 44
0.0
173
     0
291
     1
 45
0.0
1001
ACAD
1000
AcDbSavedByObjectVersion
1070
     0
  0
VISUALSTYLE
  5
2B
102
{ACAD_REACTORS
330
2A
102
}
330
2A
100
AcDbVisualStyle
  2
Flat
 70
     0
 71
     2
 72
     1
 73
     1
 90
        2
 40
-0.6
 41
30.0
 62
     5
 63
     7
 74
     0
 91
        4
 64
     7
 65
   257
 75
     1
175
     1
 42
1.0
 92
        8
 66
     7
 43
1.0
 76
     1
 77
     6
 78
     2
 67
     7
 79
     5
170
     0
171
     0
290
     0
174
     0
 93
       13
 44
0.0
173
     0
291
     1
 45
0.0
1001
ACAD
1000
AcDbSavedByObjectVersion
1070
     0
  0
VISUALSTYLE
  5
2C
102
{ACAD_REACTORS
330
2A
102
}
330
2A
100
AcDbVisualStyle
  2
FlatWithEdges
 70
     1
 71
     2
 72
     1
 73
     1
 90
        2
 40
-0.6
 41
30.0
 62
     5
 63
     7
 74
     1
 91
        4
 64
     7
 65
   257
 75
     1
175
     1
 42
1.0
 92
        0
 66
   257
 43
1.0
 76
     1
 77
     6
 78
     2
 67
     7
 79
     5
170
     0
171
     0
290
     0
174
     0
 93
       13
 44
0.0
173
     0
291
     1
 45
0.0
1001
ACAD
1000
AcDbSavedByObjectVersion
1070
     0
  0
VISUALSTYLE
  5
2D
102
{ACAD_REACTORS
330
2A
102
}
330
2A
100
AcDbVisualStyle
  2
Gouraud
 70
     2
 71
     2
 72
     2
 73
     1
 90
        2
 40
-0.6
 41
30.0
 62
     5
 63
     7
 74
     0
 91
        4
 64
     7
 65
   257
 75
     1
175
     1
 42
1.0
 92
        0
 66
     7
 43
1.0
 76
     1
 77
     6
 78
     2
 67
     7
 79
     5
170
     0
171
     0
290
     0
174
     0
 93
       13
 44
0.0
173
     0
291
     1
 45
0.0
1001
ACAD
1000
AcDbSavedByObjectVersion
1070
     0
  0
VISUALSTYLE
  5
2E
102
{ACAD_REACTORS
330
2A
102
}
330
2A
100
AcDbVisualStyle
  2
GouraudWithEdges
 70
     3
 71
     2
 72
     2
 73
     1
 90
        2
 40
-0.6
 41
30.0
 62
     5
 63
     7
 74
     1
 91
        4
 64
     7
 65
   257
 75
     1
175
     1
 42
1.0
 92
        0
 66
   257
 43
1.0
 76
     1
 77
     6
 78
     2
 67
     7
 79
     5
170
     0
171
     0
290
     0
174
     0
 93
       13
 44
0.0
173
     0
291
     1
 45
0.0
1001
ACAD
1000
AcDbSavedByObjectVersion
1070
     0
  0
VISUALSTYLE
  5
38
102
{ACAD_REACTORS
330
2A
102
}
330
2A
100
AcDbVisualStyle
  2
Linepattern
 70
    14
 71
     2
 72
     2
 73
     0
 90
        0
 40
-0.6
 41
-30.0
 62
     5
 63
     7
 74
     1
 91
        4
 64
     7
 65
   257
 75
     7
175
     7
 42
1.0
 92
        8
 66
     7
 43
1.0
 76
     1
 77
     6
 78
     2
 67
     7
 79
     5
170
     0
171
     0
290
     0
174
     0
 93
        1
 44
0.0
173
     0
291
     1
 45
0.0
1001
ACAD
1000
AcDbSavedByObjectVersion
1070
     0
  0
VISUALSTYLE
  5
33
102
{ACAD_REACTORS
330
2A
102
}
330
2A
100
AcDbVisualStyle
  2
Realistic
 70
     8
 71
     2
 72
     2
 73
     0
 90
        0
 40
-0.6
 41
-30.0
 62
     5
 63
     7
 74
     1
 91
        0
 64
     7
 65
   257
 75
     1
175
     1
 42
1.0
 92
        8
 66
     8
 43
1.0
 76
     1
 77
     6
 78
     2
 67
     7
 79
     5
170
     0
171
     0
290
     0
174
     0
 93
       13
 44
0.0
173
     0
291
     0
 45
0.0
1001
ACAD
1000
AcDbSavedByObjectVersion
1070
     0
  0
VISUALSTYLE
  5
37
102
{ACAD_REACTORS
330
2A
102
}
330
2A
100
AcDbVisualStyle
  2
Thicken
 70
    13
 71
     2
 72
     2
 73
     0
 90
        0
 40
-0.6
 41
-30.0
 62
     5
 63
     7
 74
     1
 91
        4
 64
     7
 65
   257
 75
     1
175
     1
 42
1.0
 92
       12
 66
     7
 43
1.0
 76
     1
 77
     6
 78
     2
 67
     7
 79
     5
170
     0
171
     0
290
     0
174
     0
 93
        1
 44
0.0
173
     0
291
     1
 45
0.0
1001
ACAD
1000
AcDbSavedByObjectVersion
1070
     0
  0
DICTIONARYVAR
  5
2C4
102
{ACAD_REACTORS
330
2C3
102
}
330
2C3
100
DictionaryVariables
280
     0
  1
1:1
  0
DICTIONARYVAR
  5
2C8
102
{ACAD_REACTORS
330
2C3
102
}
330
2C3
100
DictionaryVariables
280
     0
  1
80.000000
  0
DICTIONARYVAR
  5
2C7
102
{ACAD_REACTORS
330
2C3
102
}
330
2C3
100
DictionaryVariables
280
     0
  1
5.000000
  0
ENDSEC
  0
EOF
